Начать новую тему Ответить на тему  [ 1 сообщение ] 
Статистика раздачи
Размер: 866.62 МБ | Добавлен: 17 мар 2013, 13:47 | Скачали: 48
Сидеров: 0  [0 байт/сек]    Личеров: 5  [0 байт/сек]

Автор

СообщениеДобавлено: 17 мар 2013, 13:47 

Не в сети
Пользователь
Пользователь
Аватара пользователя
Раздал: 190.99 ТБ
Скачал: 78.79 ТБ
Ратио: 2.424


Зарегистрирован: 29 окт 2012, 18:12
Сообщения: 227125


Let schools. / Экзамены в школе юных Лолит.--Год производства: 2009
Страна: Япония
Жанр: Lolita's, Teens 18+, Blowjobs, Straight Sex, Cum Facials, Dildo
Продолжительность: 01:53:37
Цензура: Есть
Язык: Японский-
Студийный код фильма: RMDS-547
Студия: Home Uchu-В ролях: Mamoru Tihiro (葵ちひろ)-Описание:На японском языке:

葵ちひろ第2弾!!制服やブルマ、スク水をまとったちひろちゃんが色々Hなことにチャレンジ。制服が似合いすぎるちひろちゃんの学校で起こるショートドラマHをご覧ください!!
-На русском языке:

Первые две пули Мамору Tihiro! Униформа и шаровары, акварель носит маску Chihiro-Chan задача, которую многие H. Кратко драмы происходит в школах слишком неуклюжая форма Н Chihiro-Chan, пожалуйста!
-На английском языке:

First two bullets Mamoru Tihiro! Uniform and bloomers, water color mask wearing Chihiro-chan challenge that many H. Short drama happens in schools is too ill-fitting uniforms H Chihiro-chan please!
-Доп. информация: http://home.uchu.co.jp/works/detail.php?tid=4955

-Качество видео: DVDRip
Формат видео: MPEG-4 Visual
Видео кодек: XVID
Аудио кодек: MP3
-Видео:
Подробное техописание
Format : MPEG-4 Visual
Format profile : Streaming Video@L1
Format settings, BVOP : Yes
Format settings, QPel : No
Format settings, GMC : No warppoints
Format settings, Matrix : Default
Codec ID : XVID
Codec ID/Hint : XviD
Duration : 1h 53mn
Bit rate : 1000 Kbps
Width : 720 pixels
Height : 480 pixels
Display aspect ratio : 1.500
Frame rate : 29.970 fps
Standard : NTSC
Resolution : 8 bits
Colorimetry : 4:2:0
Scan type : Progressive
Bits/(Pixel*Frame) : 0.097
Stream size : 813 MiB (94%)
Writing library : XviD 1.1.0 (UTC 2005-11-22)
Аудио:
Подробное техописание
Format : MPEG Audio
Format version : Version 2
Format profile : Layer 3
Codec ID : 55
Codec ID/Hint : MP3
Duration : 1h 52mn
Bit rate mode : Variable
Bit rate : 48.2 Kbps
Channel(s) : 2 channels
Sampling rate : 22.05 KHz
Resolution : 16 bits
Stream size : 38.9 MiB (4%)
Alignment : Aligned on interleaves
Interleave, duration : 26 ms (0.78 video frame)
-
Скриншоты



-Если Вам не составит труда, то прошу написать свой отзыв.Убедительная просьба к тем, кто осмеливается написать свой драгоценный коментарий, не пишите пожалуйста просто спасибо, спс и т.п., т.е. односложные посты, данный форум настроен так, что такие посты удаляются.!!!Приятного просмотра и всегда рад поделиться удовольствиями, прошу посетить и другие мои релизы.!!!
С Уважением, ©®Илья®©
®С Уважением, ©®Илья®©
Релиз специально подготовлен для torrent-pirat.com


Как тут качатьЗаказ порнушки!
Добавлен:  17 мар 2013, 13:47

Скачать торрент Смотреть онлайн
Скачать торрент

Размер: 866.62 МБ
Скачали: 48
Статус
 

Последний сидер: 3 месяца 1 день 16 часов 51 минуту 54 секунды назад
Приватный: Нет (DHT включён)
Нет сидов? Пиши сюдаКак скачать отдельный файл из раздачи?


Вернуться к началу
 Профиль  
 
Показать сообщения за:  Поле сортировки  
Начать новую тему Ответить на тему  [ 1 сообщение ] 


Кто сейчас на конференции

Зарегистрированные пользователи: Alexa [Bot], Google [Bot], Majestic-12 [Bot], MSNbot Media, Yahoo [Bot], Yandex [Bot], YandexMetrika


Вы не можете начинать темы
Вы не можете отвечать на сообщения
Вы не можете редактировать свои сообщения
Вы не можете удалять свои сообщения
Вы не можете добавлять вложения

Найти:
Перейти:  

Ресурс не предоставляет электронные версии произведений, а занимается лишь коллекционированием и каталогизацией ссылок, присылаемых и публикуемых на форуме нашими читателями. Если вы являетесь правообладателем какого-либо представленного материала и не желаете чтобы ссылка на него находилась в нашем каталоге, свяжитесь с нами и мы незамедлительно удалим её. Файлы для обмена на трекере предоставлены пользователями сайта, и администрация не несёт ответственности за их содержание. Просьба не заливать файлы, защищенные авторскими правами, а также файлы нелегального содержания!