Начать новую тему Ответить на тему  [ 1 сообщение ] 
Статистика раздачи
Размер: 1.16 ГБ | Добавлен: 19 мар 2013, 11:39 | Скачали: 17
Сидеров: 0  [0 байт/сек]    Личеров: 7  [0 байт/сек]

Автор

СообщениеДобавлено: 19 мар 2013, 11:39 

Не в сети
Пользователь
Пользователь
Аватара пользователя
Раздал: 191.56 ТБ
Скачал: 82.27 ТБ
Ратио: 2.328


Зарегистрирован: 29 окт 2012, 18:12
Сообщения: 227037


[CENSORED] - Hikari Hhino - Oni Squirting. / Брызги шампанского или каждой дырке по затычке. [EC-077] (realworks) [2010г., Bondage, Blowjobs, Straight Sex, DVDRip]- #77-Год производства:2010
Страна: Япония
Жанр:Bondage, Blowjobs, Straight Sex
Продолжительность: 01:52:26
Цензура: Есть
Язык: Японский-
Студийный код фильма:EC-077
Студия: realworks-В ролях: Hikari Hhino ---------------Описание:На японском языке:

この映画は、ひかりHhinoを特色とし、彼女はいくつかの束縛や強制絶頂を含むシーンを行った。彼女は最初のシーンで喜びやホヤで叫ぶまで彼女の猫はフィンガーとディルドでfondled取得します。その後、彼女は彼女の男にいくつかのフェラを与え、彼のズキズキコックと彼女のぬれた女を貫通して彼に尋ねた。さらにいくつかの男は彼女の口を犯さ彼女は、次のクリップに縛られ、無力れている間にそれに彼らの精液をアンロード。直後に、男はバイブで彼女の猫をfondledおよびそれ以降の彼女のファックと彼女の顔に自分のザーメンをアンロード。彼女は彼女が最後のシーンで椅子に拘束されている間に多くの大人のおもちゃでpleasured彼女の猫を取得します。
-На русском языке:

Этот фильм функции Хикари Hhino и она исполнила сцены, которые включает в себя некоторые рабство и принудительный оргазм. Она получает ее киска и ласкал пальцами с фаллоимитатором, пока она кричит от удовольствия и впрыскивает в первой сцене. Затем она дала человеку некоторые минет и попросил его проникнуть ее влажное влагалище с его пульсирующий член. Мало больше парней трахал ее рот и выгружать их сперма в ней, пока она связана и беспомощным в следующем клипе. Вскоре после этого, парни ласкал ее киску с вибратором, а позже ее трахнул и выгружать их сперма на лице. Она получает ее киска потеху с большим количеством секс-игрушки, пока она связана на стуле в последней сцене.
-На английском языке:

This movie features Hikari Hhino and she performed scenes which includes some bondage and forced orgasms. She gets her pussy fingered and fondled with a dildo until she screams in pleasure and squirts in the first scene. Then, she gave her man some blowjob and asked him to penetrate her wet cunt with his throbbing cock. Few more guys fucked her mouth and unload their cum in it while she's tied and helpless in the next clip. Shortly after, the guys fondled her pussy with a vibrator and later on fucked her and unloaded their cum on her face. She gets her pussy pleasured with more sex toys while she's bound on a chair in the last scene.
-Доп. информация:
-Качество видео: DVDRip
Формат видео: WMV
Видео кодек: WMV3
Аудио кодек: WMA2
-Видео:
Подробное техописание
Формат : WMV2
Идентификатор кодека : WMV2
Идентификатор кодека/Информация : Windows Media Video 8
Продолжительность : 1 ч. 52 м.
Вид битрейта : Переменный
Битрейт : 1387 Кбит/сек
Ширина : 640 пикс.
Высота : 480 пикс.
Соотношение сторон : 4:3
Частота кадров : 29,970 кадр/сек
Битовая глубина : 8 бит
Бит/(Пиксели*Кадры) : 0.151
Размер потока : 1,09 Гбайт (94%)
Язык : English (US)
Аудио:
Подробное техописание
Формат : WMA
Версия формата : Version 2
Идентификатор кодека : 161
Идентификатор кодека/Информация : Windows Media Audio
Продолжительность : 1 ч. 52 м.
Вид битрейта : Постоянный
Битрейт : 64,0 Кбит/сек
Канал(ы) : 2 канала(ов)
Частота : 44,1 КГц
Битовая глубина : 16 бит
Размер потока : 51,5 Мбайт (4%)
Язык : English (US)
-
Скриншоты

-Если Вам не составит труда, то прошу написать свой отзыв.Убедительная просьба к тем, кто осмеливается написать свой драгоценный коментарий, не пишите пожалуйста просто спасибо, спс и т.п., т.е. односложные посты, данный форум настроен так, что такие посты удаляются.!!!Приятного просмотра и всегда рад поделиться удовольствиями, прошу посетить и другие мои релизы.!!!
С Уважением, ©®Илья®©
®С Уважением, ©®Илья®©
Релиз специально подготовлен для torrent-pirat.com


Как тут качатьЗаказ порнушки!
Добавлен:  19 мар 2013, 11:39

Скачать торрент Смотреть онлайн
Скачать торрент

Размер: 1.16 ГБ
Скачали: 17
Статус
 

Последний сидер: 11 месяцев 11 дней 21 час 35 секунд назад
Приватный: Нет (DHT включён)
Нет сидов? Пиши сюдаКак скачать отдельный файл из раздачи?


Вернуться к началу
 Профиль  
 
Показать сообщения за:  Поле сортировки  
Начать новую тему Ответить на тему  [ 1 сообщение ] 


Кто сейчас на конференции

Зарегистрированные пользователи: giro, Google [Bot], Yahoo [Bot], Yandex [Bot]


Вы не можете начинать темы
Вы не можете отвечать на сообщения
Вы не можете редактировать свои сообщения
Вы не можете удалять свои сообщения
Вы не можете добавлять вложения

Найти:
Перейти:  

Ресурс не предоставляет электронные версии произведений, а занимается лишь коллекционированием и каталогизацией ссылок, присылаемых и публикуемых на форуме нашими читателями. Если вы являетесь правообладателем какого-либо представленного материала и не желаете чтобы ссылка на него находилась в нашем каталоге, свяжитесь с нами и мы незамедлительно удалим её. Файлы для обмена на трекере предоставлены пользователями сайта, и администрация не несёт ответственности за их содержание. Просьба не заливать файлы, защищенные авторскими правами, а также файлы нелегального содержания!