Начать новую тему Ответить на тему  [ 1 сообщение ] 
Автор Сообщение
СообщениеДобавлено: 04 ноя 2013, 08:23 
Не в сети
Пользователь
Пользователь
Аватара пользователя
Раздал: 194.1 ТБ
Скачал: 96.67 ТБ
Ратио: 2.008


Зарегистрирован: 29 окт 2012, 18:12
Сообщения: 223450
Марина


Год производства: 2013 г.
Жанр: Amateur, Blowjob, Doggystyle, Gonzo, Masturbation, Oral Sex, Red Heads, Russian Girls, Shaved, Straight, Topless
Продолжительность: 00:09:18

Описание:

Качество видео: SATRip
Формат видео: AVI
Видео: FMP4 320x240 25.00fps 1278Kbps
Аудио: MPEG Audio Layer 3 32000Hz stereo 64Kbps
Тех.Данные
Формат : AVI
Формат/Информация : Audio Video Interleave
Размер файла : 90,1 Мбайт
Продолжительность : 9 м. 18 с.
Общий поток : 1353 Кбит/сек
Программа кодирования : Lavf52.23.1
Библиотека кодирования : Boilsoft AVI tool build 1/release

Видео
Идентификатор : 0
Формат : MPEG-4 Visual
Профиль формата : [email protected]
Параметр BVOP формата : Нет
Параметр QPel формата : Нет
Параметр GMC формата : Без точки перехода
Параметр матрицы формата : Default (H.263)
Идентификатор кодека : FMP4
Продолжительность : 9 м. 18 с.
Битрейт : 1278 Кбит/сек
Ширина : 320 пикселей
Высота : 240 пикселей
Соотношение сторон : 4:3
Частота кадров : 25,000 кадров/сек
Цветовое пространство : YUV
Субдискретизация насыщенности : 4:2:0
Битовая глубина : 8 бит
Тип развёртки : Прогрессивная
Метод сжатия : С потерями
Бит/(Пиксели*Кадры) : 0.666
Размер потока : 85,1 Мбайт (95%)
Библиотека кодирования : Lavc52.10.0

Аудио
Идентификатор : 1
Формат : MPEG Audio
Версия формата : Version 1
Профиль формата : Layer 3
Режим : Joint stereo
Расширение режима : MS Stereo
Идентификатор кодека : 55
Идентификатор кодека/Подсказка : MP3
Продолжительность : 9 м. 18 с.
Вид битрейта : Постоянный
Битрейт : 64,0 Кбит/сек
Каналы : 2 канала
Частота : 32,0 КГц
Метод сжатия : С потерями
Размер потока : 4,26 Мбайт (5%)
Выравнивание : Соединение по промежуткам
Продолжительность промежутка : 36 мс. (0,90 видеокадр)
Время предзагрузки промежутка : 504 мс.
Библиотека кодирования : LAME3.98.2ЄЄЄЄЄЄЄЄЄ
Скринлист


Вернуться к началу
 Профиль  
 
Показать сообщения за:  Поле сортировки  
Начать новую тему Ответить на тему  [ 1 сообщение ] 


Кто сейчас на конференции

Зарегистрированные пользователи: Alexa [Bot], Сэм, Google [Bot], Yandex [Bot]


Вы не можете начинать темы
Вы не можете отвечать на сообщения
Вы не можете редактировать свои сообщения
Вы не можете удалять свои сообщения
Вы не можете добавлять вложения

Найти:
Перейти: