Правила форума


В данном форуме отображение пиров работает не корректно, но в каждой раздаче они имеются, качайте смело.



Начать новую тему Ответить на тему  [ 1 сообщение ] 
Статистика раздачи
Размер: 90.07 МБ | Добавлен: 04 ноя 2013, 08:23 | Скачали: 539
Сидеров: 0  [0 байт/сек]    Личеров: 0  [0 байт/сек]

Автор

СообщениеДобавлено: 04 ноя 2013, 08:23 

Не в сети
Пользователь
Пользователь
Аватара пользователя
Раздал: 192.94 ТБ
Скачал: 91.86 ТБ
Ратио: 2.100


Зарегистрирован: 29 окт 2012, 18:12
Сообщения: 227032


Марина


Год производства: 2013 г.
Жанр: Amateur, Blowjob, Doggystyle, Gonzo, Masturbation, Oral Sex, Red Heads, Russian Girls, Shaved, Straight, Topless
Продолжительность: 00:09:18

Описание:

Качество видео: SATRip
Формат видео: AVI
Видео: FMP4 320x240 25.00fps 1278Kbps
Аудио: MPEG Audio Layer 3 32000Hz stereo 64Kbps
Тех.Данные
Формат : AVI
Формат/Информация : Audio Video Interleave
Размер файла : 90,1 Мбайт
Продолжительность : 9 м. 18 с.
Общий поток : 1353 Кбит/сек
Программа кодирования : Lavf52.23.1
Библиотека кодирования : Boilsoft AVI tool build 1/release

Видео
Идентификатор : 0
Формат : MPEG-4 Visual
Профиль формата : Simple@L1
Параметр BVOP формата : Нет
Параметр QPel формата : Нет
Параметр GMC формата : Без точки перехода
Параметр матрицы формата : Default (H.263)
Идентификатор кодека : FMP4
Продолжительность : 9 м. 18 с.
Битрейт : 1278 Кбит/сек
Ширина : 320 пикселей
Высота : 240 пикселей
Соотношение сторон : 4:3
Частота кадров : 25,000 кадров/сек
Цветовое пространство : YUV
Субдискретизация насыщенности : 4:2:0
Битовая глубина : 8 бит
Тип развёртки : Прогрессивная
Метод сжатия : С потерями
Бит/(Пиксели*Кадры) : 0.666
Размер потока : 85,1 Мбайт (95%)
Библиотека кодирования : Lavc52.10.0

Аудио
Идентификатор : 1
Формат : MPEG Audio
Версия формата : Version 1
Профиль формата : Layer 3
Режим : Joint stereo
Расширение режима : MS Stereo
Идентификатор кодека : 55
Идентификатор кодека/Подсказка : MP3
Продолжительность : 9 м. 18 с.
Вид битрейта : Постоянный
Битрейт : 64,0 Кбит/сек
Каналы : 2 канала
Частота : 32,0 КГц
Метод сжатия : С потерями
Размер потока : 4,26 Мбайт (5%)
Выравнивание : Соединение по промежуткам
Продолжительность промежутка : 36 мс. (0,90 видеокадр)
Время предзагрузки промежутка : 504 мс.
Библиотека кодирования : LAME3.98.2ЄЄЄЄЄЄЄЄЄ
Скринлист


Как тут качатьЗаказ порнушки!
Добавлен:  04 ноя 2013, 08:23

Скачать торрент Смотреть онлайн
Скачать торрент

Размер: 90.07 МБ
Скачали: 539
Статус
 

Последний сидер: 1 год 4 дня 5 часов 31 минуту 35 секунд назад
Приватный: Нет (DHT включён)
Нет сидов? Пиши сюдаКак скачать отдельный файл из раздачи?


Вернуться к началу
 Профиль  
 
Показать сообщения за:  Поле сортировки  
Начать новую тему Ответить на тему  [ 1 сообщение ] 


Кто сейчас на конференции

Зарегистрированные пользователи: Google [Bot], Yandex [Bot]


Вы не можете начинать темы
Вы не можете отвечать на сообщения
Вы не можете редактировать свои сообщения
Вы не можете удалять свои сообщения
Вы не можете добавлять вложения

Найти:
Перейти:  

Ресурс не предоставляет электронные версии произведений, а занимается лишь коллекционированием и каталогизацией ссылок, присылаемых и публикуемых на форуме нашими читателями. Если вы являетесь правообладателем какого-либо представленного материала и не желаете чтобы ссылка на него находилась в нашем каталоге, свяжитесь с нами и мы незамедлительно удалим её. Файлы для обмена на трекере предоставлены пользователями сайта, и администрация не несёт ответственности за их содержание. Просьба не заливать файлы, защищенные авторскими правами, а также файлы нелегального содержания!