Начать новую тему Ответить на тему  [ 1 сообщение ] 
Статистика раздачи
Размер: 2.8 ГБ | Добавлен: 03 сен 2016, 03:58 | Скачали: 941
Сидеров: 21  [0 байт/сек]    Личеров: 4  [0 байт/сек]

Автор

СообщениеДобавлено: 03 сен 2016, 03:58 

Не в сети
Пользователь
Пользователь
Аватара пользователя
Раздал: 28.63 ТБ
Скачал: 8.6 ТБ
Ратио: 3.330

Предупреждений: 3

Зарегистрирован: 10 фев 2014, 22:28
Сообщения: 9516


Год производства: 2016
Жанр: All Sex,Fetish , Hardcore , Milf , Small Tits

Тип видео : HD
Формат видео : MP4

Video
ID : 1
Format : AVC
Format/Info : Advanced Video Codec
Format profile : High@L3.2
Format settings, CABAC : Yes
Format settings, ReFrames : 2 frames
Codec ID : avc1
Codec ID/Info : Advanced Video Coding
Duration : 1h 18mn
Bit rate mode : Variable
Bit rate : 4 992 Kbps
Maximum bit rate : 7 000 Kbps
Width : 1 280 pixels
Height : 720 pixels
Display aspect ratio : 16:9
Frame rate mode : Constant
Frame rate : 29.970 (30000/1001) fps
Color space : YUV
Chroma subsampling : 4:2:0
Bit depth : 8 bits
Scan type : Progressive
Bits/(Pixel*Frame) : 0.181
Stream size : 2.73 GiB (97%)
Encoded date : UTC 1904-01-01 00:00:00
Tagged date : UTC 1904-01-01 00:00:00

Audio
ID : 2
Format : AAC
Format/Info : Advanced Audio Codec
Format profile : LC
Codec ID : 40
Duration : 1h 18mn
Bit rate mode : Constant
Bit rate : 126 Kbps
Channel(s) : 2 channels
Channel positions : Front: L R
Sampling rate : 44.1 KHz
Frame rate : 43.066 fps (1024 spf)
Compression mode : Lossy
Stream size : 70.3 MiB (2%)
Default : Yes
Alternate group : 1
Encoded date : UTC 1904-01-01 00:00:00
Tagged date : UTC 1904-01-01 00:00:00

Скриншоты:


Как тут качатьЗаказ порнушки!
Добавлен:  03 сен 2016, 03:58

Скачать торрент Смотреть онлайн
Скачать торрент

Размер: 2.8 ГБ
Скачали: 941
Статус Проверен
 

Последний сидер: 12 часов 20 минут 12 секунд назад
Приватный: Нет (DHT включён)
Нет сидов? Пиши сюдаКак скачать отдельный файл из раздачи?


Вернуться к началу
 Профиль  
 
Показать сообщения за:  Поле сортировки  
Начать новую тему Ответить на тему  [ 1 сообщение ] 


Кто сейчас на конференции

Зарегистрированные пользователи: Alexa [Bot], Google [Bot], Yahoo [Bot], Yandex [Bot], YandexMetrika


Вы не можете начинать темы
Вы не можете отвечать на сообщения
Вы не можете редактировать свои сообщения
Вы не можете удалять свои сообщения
Вы не можете добавлять вложения

Найти:
Перейти:  

Ресурс не предоставляет электронные версии произведений, а занимается лишь коллекционированием и каталогизацией ссылок, присылаемых и публикуемых на форуме нашими читателями. Если вы являетесь правообладателем какого-либо представленного материала и не желаете чтобы ссылка на него находилась в нашем каталоге, свяжитесь с нами и мы незамедлительно удалим её. Файлы для обмена на трекере предоставлены пользователями сайта, и администрация не несёт ответственности за их содержание. Просьба не заливать файлы, защищенные авторскими правами, а также файлы нелегального содержания!