Начать новую тему Ответить на тему  [ 1 сообщение ] 
Статистика раздачи
Размер: 4.63 ГБ | Добавлен: 07 янв 2013, 17:03 | Скачали: 83
Сидеров: 0  [0 байт/сек]    Личеров: 107  [0 байт/сек]

Автор

СообщениеДобавлено: 07 янв 2013, 17:03 

Не в сети
Администратор
Администратор
Аватара пользователя
Раздал: 12.13 ТБ
Скачал: 6.2 ТБ
Ратио: 1.956


Зарегистрирован: 22 май 2012, 11:34
Сообщения: 86112



Год выпуска: 2007
Страна: EU
Жанр: oral, cumshot, big tits, hardcore, gangbang
Качество:DVDRIP
Содержание
Скриншоты
screens@rapidshare
28001 - Vica Ryder (aka Nikky Rider)
28002 - Malina
28010 - Sabrina Sweet
28014 - Cherie
28015 - Bonny Bon
28019 - Judith Fox
28021 - Bailey
28023 - Olimpia
28026 - Genevieve
28028 - Kyra Black
28029 - Sierra
28030 - Jessica Moore
28032 - Leana
28036 - Eleanor
28043 - Destiny
28045 - Katarina
28050 - Sabrina Rose (aka Trisha Edina)
28052 - Regina Moon
28054 - Black Angelika
28061 - Dorina Gold
Тех. данные по всем роликам
General
Complete name : v28001-399.mpg
Format : AVI
Format/Info : Audio Video Interleave
File size : 281 MiB
Duration : 28mn 43s
Overall bit rate : 1 367 Kbps
Writing library : VirtualDub build 24463/release
Video
Format : S-Mpeg 4 v3
Codec ID : MP43
Codec ID/Info : Microsoft MPEG-4 V3
Duration : 28mn 43s
Bit rate : 1 326 Kbps
Width : 512 pixels
Height : 384 pixels
Display aspect ratio : 4/3
Frame rate : 25.000 fps
Resolution : 24 bits
Bits/(Pixel*Frame) : 0.270
Stream size : 272 MiB (97%)
Audio
Format : MPEG Audio
Format version : Version 2
Format profile : Layer 3
Codec ID : 55
Codec ID/Hint : MP3
Duration : 28mn 43s
Bit rate mode : Constant
Bit rate : 32.0 Kbps
Channel(s) : 1 channel
Sampling rate : 24.0 KHz
Resolution : 16 bits
Stream size : 6.57 MiB (2%)
Alignment : Split accross interleaves
Interleave, duration : 40 ms (1.00 video frame)
Interleave, preload duration : 500 ms
General
Complete name : v28002-399.mpg
Format : AVI
Format/Info : Audio Video Interleave
File size : 260 MiB
Duration : 26mn 34s
Overall bit rate : 1 367 Kbps
Writing library : VirtualDub build 24463/release
Video
Format : S-Mpeg 4 v3
Codec ID : MP43
Codec ID/Info : Microsoft MPEG-4 V3
Duration : 26mn 34s
Bit rate : 1 325 Kbps
Width : 512 pixels
Height : 384 pixels
Display aspect ratio : 4/3
Frame rate : 25.000 fps
Resolution : 24 bits
Bits/(Pixel*Frame) : 0.270
Stream size : 252 MiB (97%)
Audio
Format : MPEG Audio
Format version : Version 2
Format profile : Layer 3
Codec ID : 55
Codec ID/Hint : MP3
Duration : 26mn 34s
Bit rate mode : Constant
Bit rate : 32.0 Kbps
Channel(s) : 1 channel
Sampling rate : 24.0 KHz
Resolution : 16 bits
Stream size : 6.08 MiB (2%)
Alignment : Split accross interleaves
Interleave, duration : 40 ms (1.00 video frame)
Interleave, preload duration : 500 ms
General
Complete name : v28010-399.mpg
Format : AVI
Format/Info : Audio Video Interleave
File size : 220 MiB
Duration : 22mn 31s
Overall bit rate : 1 367 Kbps
Writing library : VirtualDub build 24463/release
Video
Format : S-Mpeg 4 v3
Codec ID : MP43
Codec ID/Info : Microsoft MPEG-4 V3
Duration : 22mn 30s
Bit rate : 1 325 Kbps
Width : 512 pixels
Height : 384 pixels
Display aspect ratio : 4/3
Frame rate : 25.000 fps
Resolution : 24 bits
Bits/(Pixel*Frame) : 0.270
Stream size : 213 MiB (97%)
Audio
Format : MPEG Audio
Format version : Version 2
Format profile : Layer 3
Codec ID : 55
Codec ID/Hint : MP3
Duration : 22mn 31s
Bit rate mode : Constant
Bit rate : 32.0 Kbps
Channel(s) : 1 channel
Sampling rate : 24.0 KHz
Resolution : 16 bits
Stream size : 5.15 MiB (2%)
Alignment : Split accross interleaves
Interleave, duration : 40 ms (1.00 video frame)
Interleave, preload duration : 500 ms
General
Complete name : v28014-399.mpg
Format : AVI
Format/Info : Audio Video Interleave
File size : 266 MiB
Duration : 27mn 14s
Overall bit rate : 1 366 Kbps
Writing library : VirtualDub build 24463/release
Video
Format : S-Mpeg 4 v3
Codec ID : MP43
Codec ID/Info : Microsoft MPEG-4 V3
Duration : 27mn 14s
Bit rate : 1 324 Kbps
Width : 512 pixels
Height : 384 pixels
Display aspect ratio : 4/3
Frame rate : 25.000 fps
Resolution : 24 bits
Bits/(Pixel*Frame) : 0.269
Stream size : 258 MiB (97%)
Audio
Format : MPEG Audio
Format version : Version 2
Format profile : Layer 3
Codec ID : 55
Codec ID/Hint : MP3
Duration : 27mn 14s
Bit rate mode : Constant
Bit rate : 32.0 Kbps
Channel(s) : 1 channel
Sampling rate : 24.0 KHz
Resolution : 16 bits
Stream size : 6.23 MiB (2%)
Alignment : Split accross interleaves
Interleave, duration : 40 ms (1.00 video frame)
Interleave, preload duration : 500 ms
General
Complete name : v28015-399.mpg
Format : AVI
Format/Info : Audio Video Interleave
File size : 253 MiB
Duration : 25mn 55s
Overall bit rate : 1 366 Kbps
Writing library : VirtualDub build 24463/release
Video
Format : S-Mpeg 4 v3
Codec ID : MP43
Codec ID/Info : Microsoft MPEG-4 V3
Duration : 25mn 55s
Bit rate : 1 325 Kbps
Width : 512 pixels
Height : 384 pixels
Display aspect ratio : 4/3
Frame rate : 25.000 fps
Resolution : 24 bits
Bits/(Pixel*Frame) : 0.270
Stream size : 246 MiB (97%)
Audio
Format : MPEG Audio
Format version : Version 2
Format profile : Layer 3
Codec ID : 55
Codec ID/Hint : MP3
Duration : 25mn 55s
Bit rate mode : Constant
Bit rate : 32.0 Kbps
Channel(s) : 1 channel
Sampling rate : 24.0 KHz
Resolution : 16 bits
Stream size : 5.93 MiB (2%)
Alignment : Split accross interleaves
Interleave, duration : 40 ms (1.00 video frame)
Interleave, preload duration : 500 ms
General
Complete name : v28019-399.mpg
Format : AVI
Format/Info : Audio Video Interleave
File size : 254 MiB
Duration : 25mn 59s
Overall bit rate : 1 364 Kbps
Writing library : VirtualDub build 23648/release
Video
Format : S-Mpeg 4 v3
Codec ID : MP43
Codec ID/Info : Microsoft MPEG-4 V3
Duration : 25mn 59s
Bit rate : 1 323 Kbps
Width : 512 pixels
Height : 384 pixels
Display aspect ratio : 4/3
Frame rate : 25.000 fps
Resolution : 24 bits
Bits/(Pixel*Frame) : 0.269
Stream size : 246 MiB (97%)
Audio
Format : MPEG Audio
Format version : Version 2
Format profile : Layer 3
Codec ID : 55
Codec ID/Hint : MP3
Duration : 25mn 59s
Bit rate mode : Constant
Bit rate : 32.0 Kbps
Channel(s) : 1 channel
Sampling rate : 24.0 KHz
Resolution : 16 bits
Stream size : 5.95 MiB (2%)
Alignment : Split accross interleaves
Interleave, duration : 40 ms (1.00 video frame)
Interleave, preload duration : 500 ms
General
Complete name : v28021-399.mpg
Format : AVI
Format/Info : Audio Video Interleave
File size : 201 MiB
Duration : 20mn 34s
Overall bit rate : 1 366 Kbps
Writing library : VirtualDub build 24463/release
Video
Format : S-Mpeg 4 v3
Codec ID : MP43
Codec ID/Info : Microsoft MPEG-4 V3
Duration : 20mn 34s
Bit rate : 1 325 Kbps
Width : 512 pixels
Height : 384 pixels
Display aspect ratio : 4/3
Frame rate : 25.000 fps
Resolution : 24 bits
Bits/(Pixel*Frame) : 0.270
Stream size : 195 MiB (97%)
Audio
Format : MPEG Audio
Format version : Version 2
Format profile : Layer 3
Codec ID : 55
Codec ID/Hint : MP3
Duration : 20mn 34s
Bit rate mode : Constant
Bit rate : 32.0 Kbps
Channel(s) : 1 channel
Sampling rate : 24.0 KHz
Resolution : 16 bits
Stream size : 4.71 MiB (2%)
Alignment : Split accross interleaves
Interleave, duration : 40 ms (1.00 video frame)
Interleave, preload duration : 500 ms
General
Complete name : v28023-399.mpg
Format : AVI
Format/Info : Audio Video Interleave
File size : 252 MiB
Duration : 25mn 45s
Overall bit rate : 1 367 Kbps
Writing library : VirtualDub build 24463/release
Video
Format : S-Mpeg 4 v3
Codec ID : MP43
Codec ID/Info : Microsoft MPEG-4 V3
Duration : 25mn 45s
Bit rate : 1 325 Kbps
Width : 512 pixels
Height : 384 pixels
Display aspect ratio : 4/3
Frame rate : 25.000 fps
Resolution : 24 bits
Bits/(Pixel*Frame) : 0.270
Stream size : 244 MiB (97%)
Audio
Format : MPEG Audio
Format version : Version 2
Format profile : Layer 3
Codec ID : 55
Codec ID/Hint : MP3
Duration : 25mn 45s
Bit rate mode : Constant
Bit rate : 32.0 Kbps
Channel(s) : 1 channel
Sampling rate : 24.0 KHz
Resolution : 16 bits
Stream size : 5.89 MiB (2%)
Alignment : Split accross interleaves
Interleave, duration : 40 ms (1.00 video frame)
Interleave, preload duration : 500 ms
General
Complete name : v28026-399.mpg
Format : AVI
Format/Info : Audio Video Interleave
File size : 229 MiB
Duration : 23mn 28s
Overall bit rate : 1 366 Kbps
Writing library : VirtualDub build 24463/release
Video
Format : S-Mpeg 4 v3
Codec ID : MP43
Codec ID/Info : Microsoft MPEG-4 V3
Duration : 23mn 28s
Bit rate : 1 325 Kbps
Width : 512 pixels
Height : 384 pixels
Display aspect ratio : 4/3
Frame rate : 25.000 fps
Resolution : 24 bits
Bits/(Pixel*Frame) : 0.269
Stream size : 222 MiB (97%)
Audio
Format : MPEG Audio
Format version : Version 2
Format profile : Layer 3
Codec ID : 55
Codec ID/Hint : MP3
Duration : 23mn 28s
Bit rate mode : Constant
Bit rate : 32.0 Kbps
Channel(s) : 1 channel
Sampling rate : 24.0 KHz
Resolution : 16 bits
Stream size : 5.37 MiB (2%)
Alignment : Split accross interleaves
Interleave, duration : 40 ms (1.00 video frame)
Interleave, preload duration : 500 ms
General
Complete name : v28028-399.mpg
Format : AVI
Format/Info : Audio Video Interleave
File size : 209 MiB
Duration : 21mn 25s
Overall bit rate : 1 366 Kbps
Writing library : VirtualDub build 24463/release
Video
Format : S-Mpeg 4 v3
Codec ID : MP43
Codec ID/Info : Microsoft MPEG-4 V3
Duration : 21mn 25s
Bit rate : 1 325 Kbps
Width : 512 pixels
Height : 384 pixels
Display aspect ratio : 4/3
Frame rate : 25.000 fps
Resolution : 24 bits
Bits/(Pixel*Frame) : 0.269
Stream size : 203 MiB (97%)
Audio
Format : MPEG Audio
Format version : Version 2
Format profile : Layer 3
Codec ID : 55
Codec ID/Hint : MP3
Duration : 21mn 25s
Bit rate mode : Constant
Bit rate : 32.0 Kbps
Channel(s) : 1 channel
Sampling rate : 24.0 KHz
Resolution : 16 bits
Stream size : 4.91 MiB (2%)
Alignment : Split accross interleaves
Interleave, duration : 40 ms (1.00 video frame)
Interleave, preload duration : 500 ms
General
Complete name : v28029-399.mpg
Format : AVI
Format/Info : Audio Video Interleave
File size : 257 MiB
Duration : 26mn 17s
Overall bit rate : 1 367 Kbps
Writing library : VirtualDub build 24463/release
Video
Format : S-Mpeg 4 v3
Codec ID : MP43
Codec ID/Info : Microsoft MPEG-4 V3
Duration : 26mn 17s
Bit rate : 1 325 Kbps
Width : 512 pixels
Height : 384 pixels
Display aspect ratio : 4/3
Frame rate : 25.000 fps
Resolution : 24 bits
Bits/(Pixel*Frame) : 0.270
Stream size : 249 MiB (97%)
Audio
Format : MPEG Audio
Format version : Version 2
Format profile : Layer 3
Codec ID : 55
Codec ID/Hint : MP3
Duration : 26mn 17s
Bit rate mode : Constant
Bit rate : 32.0 Kbps
Channel(s) : 1 channel
Sampling rate : 24.0 KHz
Resolution : 16 bits
Stream size : 6.02 MiB (2%)
Alignment : Split accross interleaves
Interleave, duration : 40 ms (1.00 video frame)
Interleave, preload duration : 500 ms
General
Complete name : v28030-399.mpg
Format : AVI
Format/Info : Audio Video Interleave
File size : 289 MiB
Duration : 29mn 31s
Overall bit rate : 1 368 Kbps
Writing library : VirtualDub build 24463/release
Video
Format : S-Mpeg 4 v3
Codec ID : MP43
Codec ID/Info : Microsoft MPEG-4 V3
Duration : 29mn 31s
Bit rate : 1 326 Kbps
Width : 512 pixels
Height : 384 pixels
Display aspect ratio : 4/3
Frame rate : 25.000 fps
Resolution : 24 bits
Bits/(Pixel*Frame) : 0.270
Stream size : 280 MiB (97%)
Audio
Format : MPEG Audio
Format version : Version 2
Format profile : Layer 3
Codec ID : 55
Codec ID/Hint : MP3
Duration : 29mn 31s
Bit rate mode : Constant
Bit rate : 32.0 Kbps
Channel(s) : 1 channel
Sampling rate : 24.0 KHz
Resolution : 16 bits
Stream size : 6.76 MiB (2%)
Alignment : Split accross interleaves
Interleave, duration : 40 ms (1.00 video frame)
Interleave, preload duration : 500 ms
General
Complete name : v28032-399.mpg
Format : AVI
Format/Info : Audio Video Interleave
File size : 267 MiB
Duration : 27mn 20s
Overall bit rate : 1 367 Kbps
Writing library : VirtualDub build 24463/release
Video
Format : S-Mpeg 4 v3
Codec ID : MP43
Codec ID/Info : Microsoft MPEG-4 V3
Duration : 27mn 20s
Bit rate : 1 325 Kbps
Width : 512 pixels
Height : 384 pixels
Display aspect ratio : 4/3
Frame rate : 25.000 fps
Resolution : 24 bits
Bits/(Pixel*Frame) : 0.270
Stream size : 259 MiB (97%)
Audio
Format : MPEG Audio
Format version : Version 2
Format profile : Layer 3
Codec ID : 55
Codec ID/Hint : MP3
Duration : 27mn 20s
Bit rate mode : Constant
Bit rate : 32.0 Kbps
Channel(s) : 1 channel
Sampling rate : 24.0 KHz
Resolution : 16 bits
Stream size : 6.26 MiB (2%)
Alignment : Split accross interleaves
Interleave, duration : 40 ms (1.00 video frame)
Interleave, preload duration : 500 ms
General
Complete name : v28036-399.mpg
Format : AVI
Format/Info : Audio Video Interleave
File size : 260 MiB
Duration : 26mn 35s
Overall bit rate : 1 366 Kbps
Writing library : VirtualDub build 24463/release
Video
Format : S-Mpeg 4 v3
Codec ID : MP43
Codec ID/Info : Microsoft MPEG-4 V3
Duration : 26mn 35s
Bit rate : 1 324 Kbps
Width : 512 pixels
Height : 384 pixels
Display aspect ratio : 4/3
Frame rate : 25.000 fps
Resolution : 24 bits
Bits/(Pixel*Frame) : 0.269
Stream size : 252 MiB (97%)
Audio
Format : MPEG Audio
Format version : Version 2
Format profile : Layer 3
Codec ID : 55
Codec ID/Hint : MP3
Duration : 26mn 35s
Bit rate mode : Constant
Bit rate : 32.0 Kbps
Channel(s) : 1 channel
Sampling rate : 24.0 KHz
Resolution : 16 bits
Stream size : 6.09 MiB (2%)
Alignment : Split accross interleaves
Interleave, duration : 40 ms (1.00 video frame)
Interleave, preload duration : 500 ms
General
Complete name : v28043-399.mpg
Format : AVI
Format/Info : Audio Video Interleave
File size : 225 MiB
Duration : 23mn 3s
Overall bit rate : 1 367 Kbps
Writing library : VirtualDub build 24463/release
Video
Format : S-Mpeg 4 v3
Codec ID : MP43
Codec ID/Info : Microsoft MPEG-4 V3
Duration : 23mn 3s
Bit rate : 1 325 Kbps
Width : 512 pixels
Height : 384 pixels
Display aspect ratio : 4/3
Frame rate : 25.000 fps
Resolution : 24 bits
Bits/(Pixel*Frame) : 0.270
Stream size : 219 MiB (97%)
Audio
Format : MPEG Audio
Format version : Version 2
Format profile : Layer 3
Codec ID : 55
Codec ID/Hint : MP3
Duration : 23mn 3s
Bit rate mode : Constant
Bit rate : 32.0 Kbps
Channel(s) : 1 channel
Sampling rate : 24.0 KHz
Resolution : 16 bits
Stream size : 5.28 MiB (2%)
Alignment : Split accross interleaves
Interleave, duration : 40 ms (1.00 video frame)
Interleave, preload duration : 500 ms
General
Complete name : v28045-399.mpg
Format : AVI
Format/Info : Audio Video Interleave
File size : 227 MiB
Duration : 23mn 15s
Overall bit rate : 1 365 Kbps
Writing library : VirtualDub build 24463/release
Video
Format : S-Mpeg 4 v3
Codec ID : MP43
Codec ID/Info : Microsoft MPEG-4 V3
Duration : 23mn 15s
Bit rate : 1 323 Kbps
Width : 512 pixels
Height : 384 pixels
Display aspect ratio : 4/3
Frame rate : 25.000 fps
Resolution : 24 bits
Bits/(Pixel*Frame) : 0.269
Stream size : 220 MiB (97%)
Audio
Format : MPEG Audio
Format version : Version 2
Format profile : Layer 3
Codec ID : 55
Codec ID/Hint : MP3
Duration : 23mn 15s
Bit rate mode : Constant
Bit rate : 32.0 Kbps
Channel(s) : 1 channel
Sampling rate : 24.0 KHz
Resolution : 16 bits
Stream size : 5.32 MiB (2%)
Alignment : Split accross interleaves
Interleave, duration : 40 ms (1.00 video frame)
Interleave, preload duration : 500 ms
General
Complete name : v28050-399.mpg
Format : AVI
Format/Info : Audio Video Interleave
File size : 208 MiB
Duration : 21mn 17s
Overall bit rate : 1 366 Kbps
Writing library : VirtualDub build 24463/release
Video
Format : S-Mpeg 4 v3
Codec ID : MP43
Codec ID/Info : Microsoft MPEG-4 V3
Duration : 21mn 17s
Bit rate : 1 324 Kbps
Width : 512 pixels
Height : 384 pixels
Display aspect ratio : 4/3
Frame rate : 25.000 fps
Resolution : 24 bits
Bits/(Pixel*Frame) : 0.269
Stream size : 202 MiB (97%)
Audio
Format : MPEG Audio
Format version : Version 2
Format profile : Layer 3
Codec ID : 55
Codec ID/Hint : MP3
Duration : 21mn 17s
Bit rate mode : Constant
Bit rate : 32.0 Kbps
Channel(s) : 1 channel
Sampling rate : 24.0 KHz
Resolution : 16 bits
Stream size : 4.88 MiB (2%)
Alignment : Split accross interleaves
Interleave, duration : 40 ms (1.00 video frame)
Interleave, preload duration : 500 ms
General
Complete name : v28052-399.mpg
Format : AVI
Format/Info : Audio Video Interleave
File size : 181 MiB
Duration : 18mn 33s
Overall bit rate : 1 363 Kbps
Writing library : VirtualDub build 24463/release
Video
Format : S-Mpeg 4 v3
Codec ID : MP43
Codec ID/Info : Microsoft MPEG-4 V3
Duration : 18mn 33s
Bit rate : 1 321 Kbps
Width : 512 pixels
Height : 384 pixels
Display aspect ratio : 4/3
Frame rate : 25.000 fps
Resolution : 24 bits
Bits/(Pixel*Frame) : 0.269
Stream size : 175 MiB (97%)
Audio
Format : MPEG Audio
Format version : Version 2
Format profile : Layer 3
Codec ID : 55
Codec ID/Hint : MP3
Duration : 18mn 33s
Bit rate mode : Constant
Bit rate : 32.0 Kbps
Channel(s) : 1 channel
Sampling rate : 24.0 KHz
Resolution : 16 bits
Stream size : 4.25 MiB (2%)
Alignment : Split accross interleaves
Interleave, duration : 40 ms (1.00 video frame)
Interleave, preload duration : 500 ms
General
Complete name : v28054-399.mp4
Format : MPEG-4
Format profile : Base Media
Codec ID : isom
File size : 206 MiB
Duration : 20mn 7s
Overall bit rate : 1 431 Kbps
Encoded date : UTC 2007-10-03 07:51:30
Tagged date : UTC 2007-10-03 07:51:30
Video
Format : AVC
Format/Info : Advanced Video Codec
Format profile : Main@L3.0
Format settings, CABAC : No
Format settings, ReFrames : 2 frames
Codec ID : avc1
Codec ID/Info : Advanced Video Coding
Duration : 20mn 7s
Bit rate mode : Variable
Bit rate : 1 299 Kbps
Maximum bit rate : 3 360 Kbps
Width : 720 pixels
Height : 540 pixels
Display aspect ratio : 4/3
Frame rate mode : Constant
Frame rate : 25.000 fps
Resolution : 24 bits
Colorimetry : 4:2:0
Scan type : Progressive
Bits/(Pixel*Frame) : 0.134
Stream size : 187 MiB (91%)
Encoded date : UTC 2007-10-03 07:51:30
Tagged date : UTC 2007-10-03 07:52:15
Audio
Format : AAC
Format/Info : Advanced Audio Codec
Format version : Version 4
Format profile : LC
Format settings, SBR : No
Codec ID : 40
Duration : 20mn 7s
Bit rate mode : Variable
Bit rate : 128 Kbps
Maximum bit rate : 165 Kbps
Channel(s) : 2 channels
Channel positions : L R
Sampling rate : 44.1 KHz
Resolution : 16 bits
Stream size : 18.4 MiB (9%)
Encoded date : UTC 2007-10-03 07:52:09
Tagged date : UTC 2007-10-03 07:52:15
General
Complete name : v28061-399.mp4
Format : MPEG-4
Format profile : Base Media
Codec ID : isom
File size : 185 MiB
Duration : 17mn 59s
Overall bit rate : 1 437 Kbps
Encoded date : UTC 2007-10-29 10:04:40
Tagged date : UTC 2007-10-29 10:04:40
Video
Format : AVC
Format/Info : Advanced Video Codec
Format profile : Main@L3.0
Format settings, CABAC : No
Format settings, ReFrames : 2 frames
Codec ID : avc1
Codec ID/Info : Advanced Video Coding
Duration : 17mn 58s
Bit rate mode : Variable
Bit rate : 1 305 Kbps
Maximum bit rate : 4 779 Kbps
Width : 720 pixels
Height : 540 pixels
Display aspect ratio : 4/3
Frame rate mode : Constant
Frame rate : 25.000 fps
Resolution : 24 bits
Colorimetry : 4:2:0
Scan type : Progressive
Bits/(Pixel*Frame) : 0.134
Stream size : 168 MiB (91%)
Encoded date : UTC 2007-10-29 10:04:40
Tagged date : UTC 2007-10-29 10:05:30
Audio
Format : AAC
Format/Info : Advanced Audio Codec
Format version : Version 4
Format profile : LC
Format settings, SBR : No
Codec ID : 40
Duration : 17mn 59s
Bit rate mode : Variable
Bit rate : 127 Kbps
Maximum bit rate : 151 Kbps
Channel(s) : 2 channels
Channel positions : L R
Sampling rate : 44.1 KHz
Resolution : 16 bits
Stream size : 16.4 MiB (9%)
Encoded date : UTC 2007-10-29 10:05:24
Tagged date : UTC 2007-10-29 10:05:30
Deep Throat Frenzy MegaPackНе забываем говорить спасибо kiokushin1982 за возможность появления данной раздачи!


Как тут качатьЗаказ порнушки!
Добавлен:  07 янв 2013, 17:03

Скачать торрент Смотреть онлайн
Скачать торрент

Размер: 4.63 ГБ
Скачали: 83
Статус
 

Последний сидер: 2 месяца 6 дней 13 часов 31 минуту 7 секунд назад
Приватный: Нет (DHT включён)
Нет сидов? Пиши сюдаКак скачать отдельный файл из раздачи?


Вернуться к началу
 Профиль  
 
Показать сообщения за:  Поле сортировки  
Начать новую тему Ответить на тему  [ 1 сообщение ] 


Кто сейчас на конференции

Зарегистрированные пользователи: Google [Bot], Yahoo [Bot], Yandex [Bot]


Вы не можете начинать темы
Вы не можете отвечать на сообщения
Вы не можете редактировать свои сообщения
Вы не можете удалять свои сообщения
Вы не можете добавлять вложения

Найти:
Перейти:  

Ресурс не предоставляет электронные версии произведений, а занимается лишь коллекционированием и каталогизацией ссылок, присылаемых и публикуемых на форуме нашими читателями. Если вы являетесь правообладателем какого-либо представленного материала и не желаете чтобы ссылка на него находилась в нашем каталоге, свяжитесь с нами и мы незамедлительно удалим её. Файлы для обмена на трекере предоставлены пользователями сайта, и администрация не несёт ответственности за их содержание. Просьба не заливать файлы, защищенные авторскими правами, а также файлы нелегального содержания!