Правила форума


В данном форуме отображение пиров работает не корректно, но в каждой раздаче они имеются, качайте смело.

Так же открыта возможность скачивать торренты с этого форума ГОСТЯМ!



Начать новую тему Ответить на тему  [ 1 сообщение ] 
Статистика раздачи
Размер: 1.46 ГБ | Добавлен: 26 окт 2013, 18:53 | Скачали: 86
Сидеров: 0  [0 байт/сек]    Личеров: 0  [0 байт/сек]

Автор

СообщениеДобавлено: 26 окт 2013, 18:53 

Не в сети
Пользователь
Пользователь
Аватара пользователя
Раздал: 189.87 ТБ
Скачал: 74.95 ТБ
Ратио: 2.533


Зарегистрирован: 29 окт 2012, 18:12
Сообщения: 227345


Netorarezuma / Netorare Tsuma / Netorare Zuma / ネトラレヅマ / Неверные жёны

#77Год производства: 2012 г.
Жанр: Big tits, Oral sex, Netorare
Серии: ep. 1
Продолжительность: 1х~17 min + 13 min трейлеры = 30 min
Цензура: Есть

Озвучка: Оригинальная (Японский)

Режиссер: Aoi Yuuno
Автор оригинала: Linda
Студия: BOOTLEG, MS Pictures

Описание RUS: Адаптаций хентай манги фирмы Linda, о похождениях неверных жён. Которые так устали от однообразной семейной жизни. И решают пустится в круговорот фантазий и бурного секса, которых им так не хватало в обыденной жизни. В первом эпизоде нас ждёт знакомство с девушкой по имени Рейко.

Описание ENG: Hentai manga adaptations firm Linda, about the adventures not faithful wives. Who are so tired of the monotonous family life. And decide in an empty cycle of fantasies and rough sex, which they lacked in everyday life. In the first episode we get acquainted with a girl named Reiko.

Информационные ссылки: AniDB - MAL - World Art - ХентайМаг
Доп. информация: адаптация хентай манги.

Качество видео: DVD5
Формат видео: DVD Video
Видео кодек: MPEG2
Аудио кодек: AC3
Видео: 720х480, (16:9), 29,970 кадров/сек, ~ 8000 Кбит/сек, NTSC
Аудио: JAP, AC-3, 2 канала, 128 Кбит/сек, 48,0 КГц
Скриншоты:
Скриншоты меню:
Обложки:
MediaInfo:
Общее
Полное имя : J:\VIDEO_TS\VTS_01_1.VOB
Формат : MPEG-PS
Размер файла : 1024 Мбайт
Продолжительность : 2 м. 47 с.
Режим общего битрейта : Переменный
Общий поток : 51,4 Мбит/сек
Библиотека кодирования : encoded by TMPGEnc Video Mastering Works 5 Version. 5.2.4.68

Видео
Идентификатор : 224 (0xE0)
Формат : MPEG Video
Версия формата : Version 2
Профиль формата : Main@Main
Параметр BVOP формата : Да
Параметр матрицы формата : Выборочная
Параметр GOP формата : M=3, N=16
Продолжительность : 2 м. 47 с.
Вид битрейта : Переменный
Битрейт : 50,2 Мбит/сек
Максимальный битрейт : 8000 Кбит/сек
Ширина : 720 пикселей
Высота : 480 пикселей
Соотношение сторон : 16:9
Частота кадров : 29,970 кадров/сек
Стандарт вещания : NTSC
Цветовое пространство : YUV
Субдискретизация насыщенности : 4:2:0
Битовая глубина : 8 бит
Тип развёртки : Чересстрочная
Порядок развёртки : Верхнее поле первое
Метод сжатия : С потерями
Бит/(Пиксели*Кадры) : 4.850
Временной код первого кадра : 00:00:00:00
Оригинал временного кода : Group of pictures header
Размер потока : 1001 Мбайт (98%)
Библиотека кодирования : TMPGEnc Video Mastering Works 5 Version. 5.2.4.68
Основные цвета : BT.601 NTSC
Характеристики трансфера : BT.601
Коэффициенты матрицы : BT.601

Аудио
Идентификатор : 189 (0xBD)-128 (0x80)
Формат : AC-3
Формат/Информация : Audio Coding 3
Расширение режима : CM (complete main)
Параметр Endianness формата : Big
Режим смешивания : DVD-Video
Продолжительность : 2 м. 47 с.
Вид битрейта : Постоянный
Битрейт : 128 Кбит/сек
Каналы : 2 канала
Расположение каналов : Front: L R
Частота : 48,0 КГц
Битовая глубина : 16 бит
Метод сжатия : С потерями
Размер потока : 2,55 Мбайт (0%)

Меню
Время раздачи: с 09 до 23, отдача: 100 кб/с


Как тут качатьЗаказ порнушки!
Добавлен:  26 окт 2013, 18:53

Скачать торрент Смотреть онлайн
Скачать торрент

Размер: 1.46 ГБ
Скачали: 86
Статус
 

Последний сидер: 3 месяца 21 час 32 минуты 1 секунду назад
Приватный: Нет (DHT включён)
Нет сидов? Пиши сюдаКак скачать отдельный файл из раздачи?


Вернуться к началу
 Профиль  
 
Показать сообщения за:  Поле сортировки  
Начать новую тему Ответить на тему  [ 1 сообщение ] 


Кто сейчас на конференции

Зарегистрированные пользователи: baidu[Bot], Google [Bot], Yahoo [Bot], Yandex [Bot], YandexMetrika


Вы не можете начинать темы
Вы не можете отвечать на сообщения
Вы не можете редактировать свои сообщения
Вы не можете удалять свои сообщения
Вы не можете добавлять вложения

Найти:
Перейти:  

Ресурс не предоставляет электронные версии произведений, а занимается лишь коллекционированием и каталогизацией ссылок, присылаемых и публикуемых на форуме нашими читателями. Если вы являетесь правообладателем какого-либо представленного материала и не желаете чтобы ссылка на него находилась в нашем каталоге, свяжитесь с нами и мы незамедлительно удалим её. Файлы для обмена на трекере предоставлены пользователями сайта, и администрация не несёт ответственности за их содержание. Просьба не заливать файлы, защищенные авторскими правами, а также файлы нелегального содержания!