Правила форума


В данном форуме отображение пиров работает не корректно, но в каждой раздаче они имеются, качайте смело.

Так же открыта возможность скачивать торренты с этого форума ГОСТЯМ!



Начать новую тему Ответить на тему  [ 1 сообщение ] 
Статистика раздачи
Размер: 2.69 ГБ | Добавлен: 26 окт 2013, 18:54 | Скачали: 46
Сидеров: 0  [0 байт/сек]    Личеров: 1  [0 байт/сек]

Автор

СообщениеДобавлено: 26 окт 2013, 18:54 

Не в сети
Пользователь
Пользователь
Аватара пользователя
Раздал: 191.33 ТБ
Скачал: 80.98 ТБ
Ратио: 2.363


Зарегистрирован: 29 окт 2012, 18:12
Сообщения: 227075


Offside Girl / オフサイドガール / Девушка вне игры / Девушка в офсайде

#77Год производства: 2007 г.
Жанр: Anal, Students, Lactation, Large Breasts, Masturbation, Virgins, Yuri, Oral sex
Серии: ep. 1-2 of 2
Продолжительность: 2х~16 min
Цензура: Есть

Озвучка: Японская (Оригинальная)

Режиссер: Miyoshi Yuuji
Автор оригинала: Nagare Ippon
Студия: AniMan, MS Pictures

Описание RUS: Можно сказать что данный хентай практически на спортивную тематику ибо он про спортивные команды, которые играют в такую мировую игру как футбол. Сегодня матч между сильными футбольными командами и все бы в нем хорошо, если бы игроки были бы не девушки. Ну так вот, до матча они могут пошалить, да еще в ихнюю компашку попадают настоящие парни.

Описание ENG: We can say that this little hentai sports theme because it pro sports teams that play in a game like football world. Today the match between strong football teams and all of it would be nice if the players were not girls. Well, before the match, they can get up to mischief, and even in theirs kompashku get these guys.

Информационные ссылки: AniDB - MAL - World Art - ХентайМаг

Качество видео: 2x DVD5
Формат видео: DVD Video
Видео кодек: MPEG2
Аудио кодек: AC3
Видео: 720х480, (4:3), 29,970 кадров/сек, ~ 8000 Кбит/сек, NTSC
Аудио: JAP, AC-3, 2 канала, 384 Кбит/сек, 48,0 КГц
Скриншоты:
VOL1:
VOL2:
Скриншоты меню:
VOL1:
VOL2:
Обложки:
MediaInfo:
Общее
Полное имя : J:\VIDEO_TS\VTS_01_1.VOB
Формат : MPEG-PS
Размер файла : 1024 Мбайт
Продолжительность : 1 м. 11 с.
Общий поток : 121 Мбит/сек

Видео
Идентификатор : 224 (0xE0)
Формат : MPEG Video
Версия формата : Version 2
Профиль формата : Main@Main
Параметр BVOP формата : Да
Параметр матрицы формата : Выборочная
Параметр GOP формата : Variable
Продолжительность : 1 м. 11 с.
Битрейт : 118 Мбит/сек
Максимальный битрейт : 8000 Кбит/сек
Ширина : 720 пикселей
Высота : 480 пикселей
Соотношение сторон : 4:3
Частота кадров : 29,970 кадров/сек
Стандарт вещания : NTSC
Цветовое пространство : YUV
Субдискретизация насыщенности : 4:2:0
Битовая глубина : 8 бит
Тип развёртки : Чересстрочная
Порядок развёртки : Верхнее поле первое
Метод сжатия : С потерями
Бит/(Пиксели*Кадры) : 11.394
Временной код первого кадра : 01:01:11;15
Оригинал временного кода : Group of pictures header
Размер потока : 1000 Мбайт (98%)

Аудио
Идентификатор : 189 (0xBD)-128 (0x80)
Формат : AC-3
Формат/Информация : Audio Coding 3
Расширение режима : CM (complete main)
Параметр Endianness формата : Big
Режим смешивания : DVD-Video
Продолжительность : 1 м. 10 с.
Вид битрейта : Постоянный
Битрейт : 384 Кбит/сек
Каналы : 2 канала
Расположение каналов : Front: L R
Частота : 48,0 КГц
Битовая глубина : 16 бит
Метод сжатия : С потерями
Размер потока : 3,24 Мбайт (0%)

Меню
Время раздачи: с 09 до 23, отдача: 100 кб/с


Как тут качатьЗаказ порнушки!
Добавлен:  26 окт 2013, 18:54

Скачать торрент Смотреть онлайн
Скачать торрент

Размер: 2.69 ГБ
Скачали: 46
Статус
 

Последний сидер: 2 месяца 25 дней 10 часов 50 минут 34 секунды назад
Приватный: Нет (DHT включён)
Нет сидов? Пиши сюдаКак скачать отдельный файл из раздачи?


Вернуться к началу
 Профиль  
 
Показать сообщения за:  Поле сортировки  
Начать новую тему Ответить на тему  [ 1 сообщение ] 


Кто сейчас на конференции

Зарегистрированные пользователи: Google [Bot], ineedjob, Majestic-12 [Bot], Yandex [Bot], YandexMetrika


Вы не можете начинать темы
Вы не можете отвечать на сообщения
Вы не можете редактировать свои сообщения
Вы не можете удалять свои сообщения
Вы не можете добавлять вложения

Найти:
Перейти:  

Ресурс не предоставляет электронные версии произведений, а занимается лишь коллекционированием и каталогизацией ссылок, присылаемых и публикуемых на форуме нашими читателями. Если вы являетесь правообладателем какого-либо представленного материала и не желаете чтобы ссылка на него находилась в нашем каталоге, свяжитесь с нами и мы незамедлительно удалим её. Файлы для обмена на трекере предоставлены пользователями сайта, и администрация не несёт ответственности за их содержание. Просьба не заливать файлы, защищенные авторскими правами, а также файлы нелегального содержания!