Правила форума


В данном форуме отображение пиров работает не корректно, но в каждой раздаче они имеются, качайте смело.

Так же открыта возможность скачивать торренты с этого форума ГОСТЯМ!



Начать новую тему Ответить на тему  [ 1 сообщение ] 
Статистика раздачи
Размер: 2.87 ГБ | Добавлен: 26 окт 2013, 18:54 | Скачали: 14
Сидеров: 0  [0 байт/сек]    Личеров: 0  [0 байт/сек]

Автор

СообщениеДобавлено: 26 окт 2013, 18:54 

Не в сети
Пользователь
Пользователь
Аватара пользователя
Раздал: 190.61 ТБ
Скачал: 77.43 ТБ
Ратио: 2.462


Зарегистрирован: 29 окт 2012, 18:12
Сообщения: 227211



Namanaka Hyaku Percent! / Namanaka Hyaku Percent!: Katamusubi no Shinpa / 生膣ひゃくぱぁせんと! / Наманака 100%! / Сотня мокрых девиц!

#77Год производства: 2012 г.
Жанр: Big Tits, Enema, Footjob, Group sex, Anal sex, Oral sex
Серии: ep. 1-2 of 3
Продолжительность: 2х~24 min
Цензура: Есть

Озвучка: Японская (Оригинальная)

Студия: Queen Bee

Описание RUS: Нашему герою повезло в двойне, он встречается сразу с двумя сестрами. Но одна не знает что он спит с другой, естественно сам он пытается всё это скрыть и виду не подаёт. Младшая сестрёнка любит переодеваться в разные костюмы, когда старшая предпочитает фетишь, секс игрушки и прочий разврат. Девушки всяческий флиртуют с ним и занимаются любовью где не попадя, не исключением стал даже лифт. В котором молодого парня изрядно поимели :3 Чему он не сказано рад. После того как девушки узнают жестокую правду начинается конкуренция за право быть первой и любимой. Хотя к счастью они находят компромисс и во второй серии поделят его, бензопилой хи-хи шутка. Конечно же нет, решив что вдвоём они могут доставить в разы больше удовольствия и прикладывают для этого все усилия для того чтоб нашему герою было хорошо. Тем временем паренёк летает в облаках в окружении двух грудастых сестрёнок. Ну а дальше можно только догадываться, продолжение их сексуальных похождений.
© Ксения Нефёдова

Описание ENG: Our hero was lucky in twins, he meets directly with the two sisters. But one does not know that he was sleeping with another, of course he is trying to hide it all and did not let on. Little sister loves to dress up in different costumes when the older prefers fetish, sex toys and other debauchery. Girls of every kind of flirting with him and make love not where you get, not the exception was even an elevator. In which a young guy fucked pretty: 3 What he does not say happy. After the girls get to know the ugly truth begin to compete for the right to be the first and favorite. Although fortunately they find a compromise and the second series will share his chainsaw hehe joke. Of course not, deciding that together they can deliver many times more fun and apply for this every effort so that our hero was good. Meanwhile, the guy flying in the clouds surrounded by two busty sisters. Well, then you can only imagine the continuation of their sexual adventures.

Информационные ссылки: AniDB - World Art - ХентайМаг

Качество видео: 2x DVD5
Формат видео: DVD Video
Видео кодек: MPEG2
Аудио кодек: AC3
Видео: 720х480, (16:9), 29,970 кадров/сек, ~ 8000 Кбит/сек, NTSC
Аудио: JAP, AC-3, 2 канала, 224 Кбит/сек, 48,0 КГц
Скриншоты:
VOL1:
VOL2:
Скриншоты меню:
VOL1:
VOL2:
Обложки:
MediaInfo:
Общее
Полное имя : J:\VIDEO_TS\VTS_01_1.VOB
Формат : MPEG-PS
Размер файла : 1024 Мбайт
Продолжительность : 2 м. 26 с.
Режим общего битрейта : Переменный
Общий поток : 58,8 Мбит/сек

Видео
Идентификатор : 224 (0xE0)
Формат : MPEG Video
Версия формата : Version 2
Профиль формата : [email protected]
Параметр BVOP формата : Да
Параметр матрицы формата : По умолчанию
Параметр GOP формата : Variable
Продолжительность : 2 м. 26 с.
Вид битрейта : Переменный
Битрейт : 57,4 Мбит/сек
Максимальный битрейт : 8000 Кбит/сек
Ширина : 720 пикселей
Высота : 480 пикселей
Соотношение сторон : 16:9
Частота кадров : 29,970 кадров/сек
Стандарт вещания : NTSC
Цветовое пространство : YUV
Субдискретизация насыщенности : 4:2:0
Битовая глубина : 8 бит
Тип развёртки : Прогрессивная
Метод сжатия : С потерями
Бит/(Пиксели*Кадры) : 5.543
Временной код первого кадра : 00:00:00;00
Оригинал временного кода : Group of pictures header
Размер потока : 1000 Мбайт (98%)

Аудио
Идентификатор : 189 (0xBD)-128 (0x80)
Формат : AC-3
Формат/Информация : Audio Coding 3
Расширение режима : CM (complete main)
Параметр Endianness формата : Big
Режим смешивания : DVD-Video
Продолжительность : 2 м. 25 с.
Вид битрейта : Постоянный
Битрейт : 224 Кбит/сек
Каналы : 2 канала
Расположение каналов : Front: L R
Частота : 48,0 КГц
Битовая глубина : 16 бит
Метод сжатия : С потерями
Задержка видео : -66 мс.
Размер потока : 3,90 Мбайт (0%)

Меню
Время раздачи: с 09 до 23, отдача: 100 кб/с


Как тут качатьЗаказ порнушки!
Добавлен:  26 окт 2013, 18:54

Скачать торрент Смотреть онлайн
Скачать торрент

Размер: 2.87 ГБ
Скачали: 14
Статус
 

Последний сидер: 1 год 8 месяцев 24 дня 15 часов 10 минут 35 секунд назад
Приватный: Нет (DHT включён)
Нет сидов? Пиши сюдаКак скачать отдельный файл из раздачи?


Вернуться к началу
 Профиль  
 
Показать сообщения за:  Поле сортировки  
Начать новую тему Ответить на тему  [ 1 сообщение ] 


Кто сейчас на конференции

Зарегистрированные пользователи: Alexa [Bot], Google [Bot], Majestic-12 [Bot], mormellados, Yahoo [Bot], Yandex [Bot], YandexMetrika


Вы не можете начинать темы
Вы не можете отвечать на сообщения
Вы не можете редактировать свои сообщения
Вы не можете удалять свои сообщения
Вы не можете добавлять вложения

Найти:
Перейти:  

Ресурс не предоставляет электронные версии произведений, а занимается лишь коллекционированием и каталогизацией ссылок, присылаемых и публикуемых на форуме нашими читателями. Если вы являетесь правообладателем какого-либо представленного материала и не желаете чтобы ссылка на него находилась в нашем каталоге, свяжитесь с нами и мы незамедлительно удалим её. Файлы для обмена на трекере предоставлены пользователями сайта, и администрация не несёт ответственности за их содержание. Просьба не заливать файлы, защищенные авторскими правами, а также файлы нелегального содержания!