Правила форума


В данном форуме отображение пиров работает не корректно, но в каждой раздаче они имеются, качайте смело.

Так же открыта возможность скачивать торренты с этого форума ГОСТЯМ!



Начать новую тему Ответить на тему  [ 1 сообщение ] 
Статистика раздачи
Размер: 4.19 ГБ | Добавлен: 26 окт 2013, 18:55 | Скачали: 133
Сидеров: 0  [0 байт/сек]    Личеров: 0  [0 байт/сек]

Автор

СообщениеДобавлено: 26 окт 2013, 18:55 

Не в сети
Пользователь
Пользователь
Аватара пользователя
Раздал: 190.96 ТБ
Скачал: 78.58 ТБ
Ратио: 2.430


Зарегистрирован: 29 окт 2012, 18:12
Сообщения: 227125



Lingeries / Lingerie Office / ランジェリーズ / Дамское бельё

#77Год производства: 2003 г.
Жанр: Large Breasts, Office Lady, Oral sex, Anal sex, Titsjob, Group sex
Серии: ep. 1-3 of 3
Продолжительность: 3х~30 min
Цензура: Отсутствует

Озвучка №1: Японский (Оригинальная)
Озвучка №2: Английский (Профессиональная, полное дублирование)
Субтитры: Английский

Режиссер: Nishijima Katsuhiko
Автор оригинала: Mink
Студия: Studio Fantasia, Green Bunny, Kitty Media

Описание RUS: Очень поучительная история о молодом человеке Юсуке Наканиси, которого нанимают в компанию по производству женского нижнего белья, но не просто начальником подразделения, а еще и "глазами и ушами" команды президента компании. В компании процветают интриги, есть подозрения на коррупцию и злоупотребления со стороны группы высокопоставленных сотрудников, а доказательства этого и должен собрать Наканиси.
Наш герой проявляет чудеса ловкости и сообразительности, причем, как выясняется, он умеет делать практически все, и не только руками. А как еще прикажете действовать в коллективе, 80% которого составляют очаровательные дамы?

Описание ENG: As Nakanishi Yusuke begins his new job at the Best Beauty Body Lingerie Company, little does he know that he is about to find himself in the center of a ring of business and sexual intrigue. Charged to disrupt and eliminate the cohorts of an opposing faction, Nakanishi thrusts himself on the prowl after three of his sexy co-workers around whom this sex drama spirals.

Доп. информация: На основе хентай игры компании Mink.
Информационные ссылки: AniDB - MAL - World Art - ХентайМаг

Качество видео: DVD5
Формат видео: DVD Video
Видео кодек: MPEG2
Аудио кодек: AC3
Видео: 720х480, (4:3), 29,970 кадров/сек, ~ 5999 Кбит/сек, NTSC
Аудио №1: JAP, AC-3, 2 канала, 384 Кбит/сек, 48,0 КГц
Аудио №2: ENG, AC-3, 2 канала, 384 Кбит/сек, 48,0 КГц
Скриншоты:
Скриншоты меню:
Обложки:
MediaInfo:
Общее
Полное имя : J:\VIDEO_TS\VTS_01_1.VOB
Формат : MPEG-PS
Размер файла : 1024 Мбайт
Продолжительность : 20 м.
Режим общего битрейта : Переменный
Общий поток : 6904 Кбит/сек

Видео
Идентификатор : 224 (0xE0)
Формат : MPEG Video
Версия формата : Version 2
Профиль формата : Main@Main
Параметр BVOP формата : Да
Параметр матрицы формата : По умолчанию
Параметр GOP формата : M=3, N=15
Продолжительность : 20 м.
Вид битрейта : Переменный
Битрейт : 5999 Кбит/сек
Максимальный битрейт : 6540 Кбит/сек
Ширина : 720 пикселей
Высота : 480 пикселей
Соотношение сторон : 4:3
Частота кадров : 29,970 кадров/сек
Стандарт вещания : NTSC
Цветовое пространство : YUV
Субдискретизация насыщенности : 4:2:0
Битовая глубина : 8 бит
Тип развёртки : Чересстрочная
Порядок развёртки : Нижнее поле первое
Метод сжатия : С потерями
Бит/(Пиксели*Кадры) : 0.579
Временной код первого кадра : 00:00:00:00
Оригинал временного кода : Group of pictures header
Размер потока : 890 Мбайт (87%)

Аудио #1
Идентификатор : 189 (0xBD)-128 (0x80)
Формат : AC-3
Формат/Информация : Audio Coding 3
Расширение режима : CM (complete main)
Параметр Endianness формата : Big
Режим смешивания : DVD-Video
Продолжительность : 20 м.
Вид битрейта : Постоянный
Битрейт : 384 Кбит/сек
Каналы : 2 канала
Расположение каналов : Front: L R
Частота : 48,0 КГц
Битовая глубина : 16 бит
Метод сжатия : С потерями
Размер потока : 56,9 Мбайт (6%)

Аудио #2
Идентификатор : 189 (0xBD)-129 (0x81)
Формат : AC-3
Формат/Информация : Audio Coding 3
Расширение режима : CM (complete main)
Параметр Endianness формата : Big
Режим смешивания : DVD-Video
Продолжительность : 20 м.
Вид битрейта : Постоянный
Битрейт : 384 Кбит/сек
Каналы : 2 канала
Расположение каналов : Front: L R
Частота : 48,0 КГц
Битовая глубина : 16 бит
Метод сжатия : С потерями
Размер потока : 56,9 Мбайт (6%)

Меню
Отличия от других раздач:
Там 3-х дисковое издание от NuTech Digital (Размер:4.81 GB) - Здесь 1-е дисковое издание от Kitty Media (Размер:4.19 GB, помещается на 1 DVD5)
Время раздачи: с 09 до 23, отдача: 100 кб/с


Как тут качатьЗаказ порнушки!
Добавлен:  26 окт 2013, 18:55

Скачать торрент Смотреть онлайн
Скачать торрент

Размер: 4.19 ГБ
Скачали: 133
Статус
 

Последний сидер: 1 день 9 часов 44 минуты 33 секунды назад
Приватный: Нет (DHT включён)
Нет сидов? Пиши сюдаКак скачать отдельный файл из раздачи?


Вернуться к началу
 Профиль  
 
Показать сообщения за:  Поле сортировки  
Начать новую тему Ответить на тему  [ 1 сообщение ] 


Кто сейчас на конференции

Зарегистрированные пользователи: baidu[Bot], Google [Bot], MSNbot Media, Yahoo [Bot], Yandex [Bot]


Вы не можете начинать темы
Вы не можете отвечать на сообщения
Вы не можете редактировать свои сообщения
Вы не можете удалять свои сообщения
Вы не можете добавлять вложения

Найти:
Перейти:  

Ресурс не предоставляет электронные версии произведений, а занимается лишь коллекционированием и каталогизацией ссылок, присылаемых и публикуемых на форуме нашими читателями. Если вы являетесь правообладателем какого-либо представленного материала и не желаете чтобы ссылка на него находилась в нашем каталоге, свяжитесь с нами и мы незамедлительно удалим её. Файлы для обмена на трекере предоставлены пользователями сайта, и администрация не несёт ответственности за их содержание. Просьба не заливать файлы, защищенные авторскими правами, а также файлы нелегального содержания!