Правила форума


В данном форуме отображение пиров работает не корректно, но в каждой раздаче они имеются, качайте смело.

Так же открыта возможность скачивать торренты с этого форума ГОСТЯМ!



Начать новую тему Ответить на тему  [ 1 сообщение ] 
Статистика раздачи
Размер: 3.24 ГБ | Добавлен: 26 окт 2013, 18:57 | Скачали: 27
Сидеров: 0  [0 байт/сек]    Личеров: 1  [0 байт/сек]

Автор

СообщениеДобавлено: 26 окт 2013, 18:57 

Не в сети
Пользователь
Пользователь
Аватара пользователя
Раздал: 191.34 ТБ
Скачал: 81 ТБ
Ратио: 2.362


Зарегистрирован: 29 окт 2012, 18:12
Сообщения: 227068


Shujii no Inbou / The doctor's plot intrigue / 主治医の淫謀 / Заговор врача / Волнующая интрига

#77Год производства: 2011 г.
Жанр: Bondage, Big tits, Oral sex, Group sex, Yuri, X-Ray, Mature
Серии: ep. 1-2 of 2
Продолжительность: 2x ~28 min
Цензура: Есть

Озвучка: Японская (Оригинальная)

Режиссер: Yoneda Mitsuhiro
Автор оригинала: Anim
Студия: vanilla, Digital Works, Y.O.U.C.

Описание RUS: Собственно говоря хентай по одноименной манге, по сюжету которой к не очень здоровому доктору и такой же озабоченной медсестре приходит на прием очередная домохозяйка, которую эта озабоченная парочка подвязывает на групповой и лесбийский секс. Ну и с этого момента в жизни этой девушки все начинает меняться, ее постоянно ждут неожиданные сцены секса в самое не ожидаемое время.

Описание ENG: My husband, Keiichirou, was struck down by illness. Mr. Noyama, our family doctor, said he would need to have a rest for a while. But he hasn't got well though a few weeks have passed. I have now a concern about myself. Yes, it's about sex.... It's impossible to ask for sex to my husband. I can't masturbate myself at home because there are my husband and daughter. I can't talk to anyone about it.... I recently feel sexually excited when Mr. Noyama comes to my house. Is this because I'm not sexually satisfied or I suffer from some kind of illness? Oh, Mr. Noyama comes again....

Описание UKR: Власне кажучи хентай за однойменною манзі, за сюжетом якої до не дуже здорового доктору і такий же стурбованою медсестрі приходить на прийом чергова домогосподарка, яку ця заклопотана парочка підв'язує на груповий і лесбійський секс. Ну і з цього моменту в житті цієї дівчини все починає змінюватися, її постійно чекають несподівані сцени сексу в самий не очікуване час.

Информационные ссылки: AniDB - MAL - World Art - ХентайМаг

Качество видео: 2x DVD5
Формат видео: DVD Video
Видео кодек: MPEG2
Аудио кодек: AC3
Видео: 720х480, (16:9), 29,970 кадров/сек, ~ 6100 Кбит/сек, NTSC
Аудио: JAP, AC-3, 2 канала, 192 Кбит/сек, 48,0 КГц
Скриншоты:
VOL1:
VOL2:
Скриншоты меню:
VOL1:
VOL2:
Обложки:
MediaInfo:
Общее
Полное имя : J:\VIDEO_TS\VTS_01_1.VOB
Формат : MPEG-PS
Размер файла : 1024 Мбайт
Продолжительность : 21 м.
Режим общего битрейта : Переменный
Общий поток : 6510 Кбит/сек

Видео
Идентификатор : 224 (0xE0)
Формат : MPEG Video
Версия формата : Version 2
Профиль формата : Main@Main
Параметр BVOP формата : Да
Параметр матрицы формата : Выборочная
Параметр GOP формата : Variable
Продолжительность : 21 м.
Вид битрейта : Переменный
Битрейт : 6188 Кбит/сек
Максимальный битрейт : 9800 Кбит/сек
Ширина : 720 пикселей
Высота : 480 пикселей
Соотношение сторон : 16:9
Частота кадров : 29,970 кадров/сек
Стандарт вещания : NTSC
Цветовое пространство : YUV
Субдискретизация насыщенности : 4:2:0
Битовая глубина : 8 бит
Тип развёртки : Чересстрочная
Порядок развёртки : Верхнее поле первое
Метод сжатия : С потерями
Бит/(Пиксели*Кадры) : 0.597
Временной код первого кадра : 01:00:17:15
Оригинал временного кода : Group of pictures header
Размер потока : 973 Мбайт (95%)

Аудио
Идентификатор : 189 (0xBD)-128 (0x80)
Формат : AC-3
Формат/Информация : Audio Coding 3
Расширение режима : CM (complete main)
Параметр Endianness формата : Big
Режим смешивания : DVD-Video
Продолжительность : 21 м.
Вид битрейта : Постоянный
Битрейт : 192 Кбит/сек
Каналы : 2 канала
Расположение каналов : Front: L R
Частота : 48,0 КГц
Битовая глубина : 16 бит
Метод сжатия : С потерями
Размер потока : 30,2 Мбайт (3%)

Меню
Время раздачи: с 09 до 23, отдача: 100 кб/с


Как тут качатьЗаказ порнушки!
Добавлен:  26 окт 2013, 18:57

Скачать торрент Смотреть онлайн
Скачать торрент

Размер: 3.24 ГБ
Скачали: 27
Статус
 

Последний сидер: 3 месяца 22 дня 4 часа 4 минуты 28 секунд назад
Приватный: Нет (DHT включён)
Нет сидов? Пиши сюдаКак скачать отдельный файл из раздачи?


Вернуться к началу
 Профиль  
 
Показать сообщения за:  Поле сортировки  
Начать новую тему Ответить на тему  [ 1 сообщение ] 


Кто сейчас на конференции

Зарегистрированные пользователи: Google [Bot], Yandex [Bot], YandexMetrika


Вы не можете начинать темы
Вы не можете отвечать на сообщения
Вы не можете редактировать свои сообщения
Вы не можете удалять свои сообщения
Вы не можете добавлять вложения

Найти:
Перейти:  

Ресурс не предоставляет электронные версии произведений, а занимается лишь коллекционированием и каталогизацией ссылок, присылаемых и публикуемых на форуме нашими читателями. Если вы являетесь правообладателем какого-либо представленного материала и не желаете чтобы ссылка на него находилась в нашем каталоге, свяжитесь с нами и мы незамедлительно удалим её. Файлы для обмена на трекере предоставлены пользователями сайта, и администрация не несёт ответственности за их содержание. Просьба не заливать файлы, защищенные авторскими правами, а также файлы нелегального содержания!