Правила форума


В данном форуме отображение пиров работает не корректно, но в каждой раздаче они имеются, качайте смело.

Так же открыта возможность скачивать торренты с этого форума ГОСТЯМ!



Начать новую тему Ответить на тему  [ 1 сообщение ] 
Статистика раздачи
Размер: 7.41 ГБ | Добавлен: 30 окт 2013, 10:53 | Скачали: 129
Сидеров: 0  [0 байт/сек]    Личеров: 0  [0 байт/сек]

Автор

СообщениеДобавлено: 30 окт 2013, 10:53 

Не в сети
Пользователь
Пользователь
Аватара пользователя
Раздал: 191.92 ТБ
Скачал: 84.67 ТБ
Ратио: 2.267


Зарегистрирован: 29 окт 2012, 18:12
Сообщения: 227035


Injuu Gakuen EX / Lady Blue / La Blue Girl EX / 淫獣学園 EX / Синяя леди / Голубая леди

#77Год производства: 1996 г.
Жанр: Oral sex, Fantasy, School, Rape, Demons, Tentacles
Серии: ep. 1-4 of 4
Продолжительность: 4x~30 min
Цензура: Отсутствует

Озвучка №1: Японская (Оригинальная)
Озвучка №2: Английская (Профессиональная, полное дублирование)
Субтитры: Английские

Режиссер: Fukumoto Kan
Автор оригинала: Maeda Toshio
Студия: Maeda Toshio, Dandelion, Daiei Eizou, Anime 18

Описание RUS: Я уже упоминал в одном из обзоров, что сериал "La Blue Girl" стал для меня открытием жанра хентай. Наверное, именно поэтому, подсознательно он остается для меня неким эталоном, с которым я сравниваю прочие просмотренные аниме сериалы подобного направления. Понятно, что "La Blue Girl" далек от того, чтобы ставить его в пример высококачественного хентая. Если посмотреть его объективно, то максимально возможная оценка, которую можно поставить не перескочит троечки (возможно с плюсом). Но, сердцу не прикажешь. И когда я увидел на прилавке с DVD дисками знакомый образ Мидо Мико, привычно опутанную озабоченными щупальцами, и надпись "Продолжение…" я ни на секунду не сомневался, доставая портмоне для оплаты. Но, даже мое лояльное отношение к сериалу, заранее завышающее его оценку, не спасло от скуки во время просмотра. Впрочем, все по порядку.
Действие сериала начинается примерно с того момента, с которого закончился его первый сезон. Мидо Мико все так же ученица старших классов школы, западающая на красивых парней, с тайным желанием лишиться в объятиях самого прекрасного из них своей девственности. Не удивляйтесь, несмотря на десяток другой тентаклов (щупалец монстров в виде полового органа) первого сезона сериала, побывавших там, где только можно и в два раза чаще там, где нельзя, Мико все еще девственница! Я не знаю, каким образом это можно объяснить физиологически, а сценаристы видимо решили не обращать внимания на сей факт вообще. Ну и пусть их! Девственница, так девственница. Нельзя же подходить к отпрыску человека и демона с простыми человеческими мерками.

Описание ENG: 19 year old ninja Midou Miko's fortune predicts that she's about to fall in love when an unexpected downpour throws her into the arms of 20 year old Hidemasa -whom she immediately recognizes as the man of her dreams! Poor Miko must not only stave off the jealosy of her friend, 19 year-old Fubuki Kai, but is forced to put her fantasies on hold when she learns of the ancient and mysterious 'male' and 'female' flutes which are wreaking havoc on her parents and women on Earth. Suspecting that the new man in her life might know something about the flutes, she must enlist his aid, or perish!

Информационные ссылки: AniDB - MAL - World Art - ХентайМаг

Качество видео: DVD9
Формат видео: DVD Video
Видео кодек: MPEG2
Аудио кодек: AC3
Видео: 720х480, (4:3), 29,970 кадров/сек, ~ 6999 Кбит/сек, NTSC
Аудио №1: JAP, AC-3, 2 канала, 192 Кбит/сек, 48,0 КГц
Аудио №2: ENG, AC-3, 2 канала, 192 Кбит/сек, 48,0 КГц
Доп. материалы: Трейлеры, фотогалерея
Скриншоты:
VOL1:
VOL2:
VOL3:
VOL4:
Скриншоты меню:
Обложки:
MediaInfo:
Общее
Полное имя : J:\VIDEO_TS\VTS_01_2.VOB
Формат : MPEG-PS
Размер файла : 1024 Мбайт
Продолжительность : 19 м.
Режим общего битрейта : Переменный
Общий поток : 7532 Кбит/сек

Видео
Идентификатор : 224 (0xE0)
Формат : MPEG Video
Версия формата : Version 2
Профиль формата : Main@Main
Параметр BVOP формата : Да
Параметр матрицы формата : Выборочная
Параметр GOP формата : M=3, N=15
Продолжительность : 19 м.
Вид битрейта : Переменный
Битрейт : 6999 Кбит/сек
Максимальный битрейт : 9800 Кбит/сек
Ширина : 720 пикселей
Высота : 480 пикселей
Соотношение сторон : 4:3
Частота кадров : 29,970 кадров/сек
Стандарт вещания : NTSC
Цветовое пространство : YUV
Субдискретизация насыщенности : 4:2:0
Битовая глубина : 8 бит
Тип развёртки : Чересстрочная
Порядок развёртки : Верхнее поле первое
Метод сжатия : С потерями
Бит/(Пиксели*Кадры) : 0.676
Размер потока : 951 Мбайт (93%)

Аудио #1
Идентификатор : 189 (0xBD)-128 (0x80)
Формат : AC-3
Формат/Информация : Audio Coding 3
Расширение режима : CM (complete main)
Параметр Endianness формата : Big
Режим смешивания : DVD-Video
Продолжительность : 19 м.
Вид битрейта : Постоянный
Битрейт : 192 Кбит/сек
Каналы : 2 канала
Расположение каналов : Front: L R
Частота : 48,0 КГц
Битовая глубина : 16 бит
Метод сжатия : С потерями
Задержка видео : -174 мс.
Размер потока : 26,1 Мбайт (3%)

Аудио #2
Идентификатор : 189 (0xBD)-129 (0x81)
Формат : AC-3
Формат/Информация : Audio Coding 3
Расширение режима : CM (complete main)
Параметр Endianness формата : Big
Режим смешивания : DVD-Video
Продолжительность : 19 м.
Вид битрейта : Постоянный
Битрейт : 192 Кбит/сек
Каналы : 2 канала
Расположение каналов : Front: L R
Частота : 48,0 КГц
Битовая глубина : 16 бит
Метод сжатия : С потерями
Задержка видео : -174 мс.
Размер потока : 26,1 Мбайт (3%)

Меню
Время раздачи: с 09 до 00.00, отдача: 100 кб/с (анальный инет)
1 Большая просьба, помогайте другим скачать (тогда релизов будет больше)
2 Если нет сидов - пишите в лс
3 Если сдохли постеры и скриншоты - пишите в лс


Как тут качатьЗаказ порнушки!
Добавлен:  30 окт 2013, 10:53

Скачать торрент Смотреть онлайн
Скачать торрент

Размер: 7.41 ГБ
Скачали: 129
Статус
 

Последний сидер: 7 дней 16 часов 15 минут 50 секунд назад
Приватный: Нет (DHT включён)
Нет сидов? Пиши сюдаКак скачать отдельный файл из раздачи?


Вернуться к началу
 Профиль  
 
Показать сообщения за:  Поле сортировки  
Начать новую тему Ответить на тему  [ 1 сообщение ] 


Кто сейчас на конференции

Зарегистрированные пользователи: Google [Bot], Yandex [Bot]


Вы не можете начинать темы
Вы не можете отвечать на сообщения
Вы не можете редактировать свои сообщения
Вы не можете удалять свои сообщения
Вы не можете добавлять вложения

Найти:
Перейти:  

Ресурс не предоставляет электронные версии произведений, а занимается лишь коллекционированием и каталогизацией ссылок, присылаемых и публикуемых на форуме нашими читателями. Если вы являетесь правообладателем какого-либо представленного материала и не желаете чтобы ссылка на него находилась в нашем каталоге, свяжитесь с нами и мы незамедлительно удалим её. Файлы для обмена на трекере предоставлены пользователями сайта, и администрация не несёт ответственности за их содержание. Просьба не заливать файлы, защищенные авторскими правами, а также файлы нелегального содержания!