Правила форума


В данном форуме отображение пиров работает не корректно, но в каждой раздаче они имеются, качайте смело.

Так же открыта возможность скачивать торренты с этого форума ГОСТЯМ!



Начать новую тему Ответить на тему  [ 1 сообщение ] 
Статистика раздачи
Размер: 10.25 ГБ | Добавлен: 02 ноя 2013, 12:40 | Скачали: 49
Сидеров: 4  [0 байт/сек]    Личеров: 16  [0 байт/сек]

Автор

СообщениеДобавлено: 02 ноя 2013, 12:40 

Не в сети
Пользователь
Пользователь
Аватара пользователя
Раздал: 190.07 ТБ
Скачал: 76.28 ТБ
Ратио: 2.492


Зарегистрирован: 29 окт 2012, 18:12
Сообщения: 227262


Kanojo x Kanojo x Kanojo: San Shimai to no DokiDoki Kyoudou Seikatsu / 彼女×彼女×彼女~三姉妹とのドキドキ共同生活~ / Три подружки: Бурная жизнь с тремя сестричками

#77Год производства: 2009 г.
Жанр: Big tits, Group sex, Oral sex, Harem, Incest, Virgin
Серии: ep. 1-3 of 3
Продолжительность: 3x~28 min
Цензура: Есть

Озвучка: Японская (Оригинальная)

Режиссер: Murayama Kousuke
Студия: Milky Animation Label, Studio Eromatick, MS Pictures

Описание RUS: Обладателя главного члена в этой истории зовут Шики Харуоми. В его жизни много чего произошло, и теперь он будет жить в семье о-о-очень дальних родственников, Орифуши. Семья Орифуши состоит из трех сестричек, Нацуми, Акины и Мафую, которых главный герой видел в последний раз в далеком детстве. Родители девушек ушли в мир иной, и в наследство им достались небольшие сбережения отца, да небольшой магазинчик с мороженным, расположенный в довольно-безлюдном месте, и не приносящий особой прибыли. Харуоми в первый же день убеждается, что его «так называемые сестрички» выросли и превратились в жаждущих мужского внимания красоток, и, подобно петуху, попавшему в курятник, начинает всеми силами им «помогать»... ©hentaimag.ru

Описание ENG: Due to unavoidable circumstances, Haruomi is freeloading at his relatives', the Orifushi sisters', house. Since that day, his common everyday life has come to a screeching halt. The eldest sister is the gentle and maternal Natsumi. The second is Akina, a bright and cheerful girl for whom a smile is well-suited. The youngest sister is the bratty Mafuyu. The curtain rises on Haruomi's new life in the company of these three beautiful sisters.

Информационные ссылки: AniDB - MAL - World Art - ХентайМаг

Качество видео: Blu-Ray
Формат видео: Blu-Ray Video
Видео кодек: H.264/AVC
Аудио кодек: PCM
Видео: 1920х1080, (16:9), 29,970 кадров/сек, 13,4 Мбит/сек, NTSC
Аудио: JAP, PCM, 2 канала, 1536 Кбит/сек, 48,0 КГц
Меню: Отсутствует (хз.)
Скриншоты:
Обложки:
MediaInfo:
Общее
Идентификатор : 0 (0x0)
Полное имя : D:\Hentai\Kanojo x Kanojo x Kanojo San Shimai to no DokiDoki Kyoudou Seikatsu (BDMV)\Kanojo x Kanojo x Kanojo San Shimai to no DokiDoki Kyoudou Seikatsu (BDMV)\Kanojo x Kanojo x Kanojo San Shimai to no DokiDoki Kyoudou Seikatsu\BDMV\STREAM\00002.m2ts
Формат : BDAV
Формат/Информация : Blu-ray Video
Размер файла : 8,85 Гбайт
Продолжительность : 1 ч. 21 м.
Режим общего битрейта : Переменный
Общий поток : 15,6 Мбит/сек
Максимальный общий битрейт : 48,0 Мбит/сек

Видео
Идентификатор : 4113 (0x1011)
Идентификатор меню : 1 (0x1)
Формат : AVC
Формат/Информация : Advanced Video Codec
Профиль формата : High@L4.1
Параметр CABAC формата : Да
Параметр ReFrames формата : 4 кадра
Идентификатор кодека : 27
Продолжительность : 1 ч. 21 м.
Вид битрейта : Переменный
Битрейт : 13,4 Мбит/сек
Максимальный битрейт : 35,0 Мбит/сек
Ширина : 1920 пикселей
Высота : 1080 пикселей
Соотношение сторон : 16:9
Частота кадров : 29,970 кадров/сек
Стандарт вещания : NTSC
Цветовое пространство : YUV
Субдискретизация насыщенности : 4:2:0
Битовая глубина : 8 бит
Тип развёртки : MBAFF
Бит/(Пиксели*Кадры) : 0.216
Размер потока : 7,62 Гбайт (86%)
Основные цвета : BT.709
Характеристики трансфера : BT.709
Коэффициенты матрицы : BT.709

Аудио
Идентификатор : 4352 (0x1100)
Идентификатор меню : 1 (0x1)
Формат : PCM
Параметр Endianness формата : Big
Параметр Sign формата : Signed
Режим смешивания : Blu-ray
Идентификатор кодека : 128
Продолжительность : 1 ч. 21 м.
Вид битрейта : Постоянный
Битрейт : 1536 Кбит/сек
Каналы : 2 канала
Расположение каналов : Front: L R
Частота : 48,0 КГц
Битовая глубина : 16 бит
Размер потока : 895 Мбайт (10%)
Отличия от других раздач:
1 Там 3-ри диска, английские и русские субтитры - Здесь 3-ри эпизода на одном диске (комплит идишен), з-я серия переделана (переделано начало и добавленна сцена с минетом на крыше)
2 Там 3хDVD5 - Здесь Blu-ray
Время раздачи: с 09 до 00.00, отдача: 100 кб/с (анальный инет)
1 Большая просьба, помогайте другим скачать (тогда релизов будет больше)
2 Если нет сидов - пишите в лс
3 Если сдохли постеры и скриншоты - пишите в лс


Как тут качатьЗаказ порнушки!
Добавлен:  02 ноя 2013, 12:40

Скачать торрент Смотреть онлайн
Скачать торрент

Размер: 10.25 ГБ
Скачали: 49
Статус
 

Последний сидер: 3 часа 47 минут 43 секунды назад
Приватный: Нет (DHT включён)
Нет сидов? Пиши сюдаКак скачать отдельный файл из раздачи?


Вернуться к началу
 Профиль  
 
Показать сообщения за:  Поле сортировки  
Начать новую тему Ответить на тему  [ 1 сообщение ] 


Кто сейчас на конференции

Зарегистрированные пользователи: baidu[Bot], cjactuago, Google [Bot], Mail.ru [Bot], onearnews, sergej10, Yahoo [Bot], Yandex [Bot], ycactuago


Вы не можете начинать темы
Вы не можете отвечать на сообщения
Вы не можете редактировать свои сообщения
Вы не можете удалять свои сообщения
Вы не можете добавлять вложения

Найти:
Перейти:  

Ресурс не предоставляет электронные версии произведений, а занимается лишь коллекционированием и каталогизацией ссылок, присылаемых и публикуемых на форуме нашими читателями. Если вы являетесь правообладателем какого-либо представленного материала и не желаете чтобы ссылка на него находилась в нашем каталоге, свяжитесь с нами и мы незамедлительно удалим её. Файлы для обмена на трекере предоставлены пользователями сайта, и администрация не несёт ответственности за их содержание. Просьба не заливать файлы, защищенные авторскими правами, а также файлы нелегального содержания!