Правила форума


В данном форуме отображение пиров работает не корректно, но в каждой раздаче они имеются, качайте смело.

Так же открыта возможность скачивать торренты с этого форума ГОСТЯМ!



Начать новую тему Ответить на тему  [ 1 сообщение ] 
Статистика раздачи
Размер: 569.6 МБ | Добавлен: 04 ноя 2013, 20:27 | Скачали: 9
Сидеров: 0  [0 байт/сек]    Личеров: 8  [0 байт/сек]

Автор

СообщениеДобавлено: 04 ноя 2013, 20:27 

Не в сети
Пользователь
Пользователь
Аватара пользователя
Раздал: 191.62 ТБ
Скачал: 83.29 ТБ
Ратио: 2.300


Зарегистрирован: 29 окт 2012, 18:12
Сообщения: 227036


Imouto Paradise! 2 / 妹ぱらだいす! 2 / Райские сестрички! 2

#77Год производства: 2013 г.
Жанр: Big tits, Oral sex, Incest, Masturbation
Серии: ep. 1 of 2
Продолжительность: 1х~15 min + 5 min трейлеры
Цензура: Есть

Озвучка: Японская (Оригинальная)

Режиссер: Murakami Teruaki
Автор оригинала: Moonstone Cherry
Студия: Mary Jane

Описание RUS: Сестрички подросли и теперь как говорится в самом соку.Естественно братец не может не испытывать сексуального влечения к таким красоткам.Когда начались летние каникулы,а родители уехали заграницу,парень начинает действовать решительнее по отношению к сестренке.Она хоть и не показывает,что тоже хочет,однако втихую мастурбирует при помощи маленького вибратора,и однажды таки спалилась перед ним,все деваться некуда,отрицать что либо бесполезно,пора переходить к делу.

Описание ENG: Sisters grew up in the prime age. The Keiichi, there was often that you will have an unhealthy feeling at the sight of such girls. Summer vacation and when I reached. Keiichi parents would go out to travel abroad. The sister thought, science people Nana a serious, brother erotic and becomes more and more vulgar in sloppily between parents absence, had to take a tough attitude Keiichi. However, our management that Nana even while saying I do not like things horny, are masturbating in secret.

Доп. информация: Первая часть тут
Информационные ссылки: AniDB - World Art - ХентайМаг

Качество видео: DVD5
Формат видео: DVD Video
Видео кодек: MPEG2
Аудио кодек: AC3
Видео: 720х480, (16:9), 29,970 кадров/сек, ~ 3500 Кбит/сек, NTSC
Аудио : JAP, AC-3, 2 канала, 224 Кбит/сек, 48,0 КГц
Скриншоты:
VOL1:
Скриншоты меню:
VOL1:
Обложки:
MediaInfo:
Общее
Полное имя : J:\VIDEO_TS\VTS_01_1.VOB
Формат : MPEG-PS
Размер файла : 564 Мбайт
Продолжительность : 7 с. 584 мс.
Общий поток : 624 Мбит/сек

Видео
Идентификатор : 224 (0xE0)
Формат : MPEG Video
Версия формата : Version 2
Профиль формата : Main@Main
Параметр BVOP формата : Да
Параметр матрицы формата : По умолчанию
Параметр GOP формата : Variable
Продолжительность : 33 мс.
Битрейт : 612 Мбит/сек
Ширина : 720 пикселей
Высота : 480 пикселей
Соотношение сторон : 16:9
Частота кадров : 29,970 кадров/сек
Стандарт вещания : NTSC
Цветовое пространство : YUV
Субдискретизация насыщенности : 4:2:0
Битовая глубина : 8 бит
Метод сжатия : С потерями
Бит/(Пиксели*Кадры) : 59.049
Размер потока : 2,43 Мбайт (0%)

Аудио
Идентификатор : 189 (0xBD)-128 (0x80)
Формат : AC-3
Формат/Информация : Audio Coding 3
Расширение режима : CM (complete main)
Параметр Endianness формата : Big
Режим смешивания : DVD-Video
Продолжительность : 7 с. 584 мс.
Вид битрейта : Постоянный
Битрейт : 224 Кбит/сек
Каналы : 2 канала
Расположение каналов : Front: L R
Частота : 48,0 КГц
Битовая глубина : 16 бит
Метод сжатия : С потерями
Размер потока : 207 Кбайт (0%)

Меню
Время раздачи: с 09 до 00.00, отдача: 100 кб/с (анальный инет)
1 Большая просьба, помогайте другим скачать (тогда релизов будет больше)
2 Если нет сидов - пишите в лс
3 Если сдохли постеры и скриншоты - пишите в лс


Как тут качатьЗаказ порнушки!
Добавлен:  04 ноя 2013, 20:27

Скачать торрент Смотреть онлайн
Скачать торрент

Размер: 569.6 МБ
Скачали: 9
Статус
 

Последний сидер: 3 года 6 месяцев 23 дня 1 час 24 минуты 4 секунды назад
Приватный: Нет (DHT включён)
Нет сидов? Пиши сюдаКак скачать отдельный файл из раздачи?


Вернуться к началу
 Профиль  
 
Показать сообщения за:  Поле сортировки  
Начать новую тему Ответить на тему  [ 1 сообщение ] 


Кто сейчас на конференции

Зарегистрированные пользователи: Google [Bot], Yandex [Bot], YandexMetrika


Вы не можете начинать темы
Вы не можете отвечать на сообщения
Вы не можете редактировать свои сообщения
Вы не можете удалять свои сообщения
Вы не можете добавлять вложения

Найти:
Перейти:  

Ресурс не предоставляет электронные версии произведений, а занимается лишь коллекционированием и каталогизацией ссылок, присылаемых и публикуемых на форуме нашими читателями. Если вы являетесь правообладателем какого-либо представленного материала и не желаете чтобы ссылка на него находилась в нашем каталоге, свяжитесь с нами и мы незамедлительно удалим её. Файлы для обмена на трекере предоставлены пользователями сайта, и администрация не несёт ответственности за их содержание. Просьба не заливать файлы, защищенные авторскими правами, а также файлы нелегального содержания!