Правила форума


В данном форуме отображение пиров работает не корректно, но в каждой раздаче они имеются, качайте смело.

Так же открыта возможность скачивать торренты с этого форума ГОСТЯМ!



Начать новую тему Ответить на тему  [ 1 сообщение ] 
Статистика раздачи
Размер: 3.64 ГБ | Добавлен: 06 ноя 2013, 10:33 | Скачали: 114
Сидеров: 0  [0 байт/сек]    Личеров: 0  [0 байт/сек]

Автор

СообщениеДобавлено: 06 ноя 2013, 10:33 

Не в сети
Пользователь
Пользователь
Аватара пользователя
Раздал: 190.98 ТБ
Скачал: 78.77 ТБ
Ратио: 2.425


Зарегистрирован: 29 окт 2012, 18:12
Сообщения: 227125


Soukan Yuugi 2 / Sexual Pursuit 2 / 相関遊戯2 / Сексуальное преследование 2

#77Год производства: 2009 г.
Жанр: incest, Big tits, virgin, yuri, Oral sex
Серии: ep. 1-2 of 2
Продолжительность: 2x~29 min
Цензура: Отсутствует

Озвучка №1: Японская (Оригинальная)
Озвучка №2: Английская (Профессиональная, полное дублирование)
Субтитры: Английские

Режиссер: Suginami Daifuku
Автор оригинала: Black Rainbow
Студия: Digital Works, Vanilla Series, Y.O.U.C., Kitty Media

Описание RUS: Меня зовут Макото. Мой отец постоянно занят на работе. Я не помню свою мать, потому что она умерла, когда я был еще ребенок. Сейчас я живу со своей старшей сестрой. Однажды, к нам присоединяются моя новая мать и младшая сестра. Конечно же я счастлив. Я страстно мастурбирую каждый день, как никогда раньше. Но я попадаю в аварию и меня кладут в больницу, где моя старая подруга работает медсестрой. И еще один мой друг тоже здесь лежит. И теперь я буду со всеми ними дружить, использую игру, которую дал мне странный торговец.. AzureXXXXXX

Описание ENG: Yuji just got himself a new board game and he can't wait to play. What Yuji doesn't know is that the game possesses secret powers, sexual powers, to be precise. He and his stepmother decide to give it a try. The game requires drawing cards from a deck that have sexual instructions on them. Though it starts out innocently enough, Yuji soon experiences sexual feelings for his opponent. As the game progresses and the sexual tension escalates culminating in a sexual free-for-all with his stepmother and stepsister.

Информационные ссылки: AniDB - MAL - World Art - ХентайМаг - Kitty Media

Качество видео: DVD5
Формат видео: DVD Video
Видео кодек: MPEG2
Аудио кодек: AC3
Видео: 720х480, (4:3), 29,970 кадров/сек, ~ 8500 Кбит/сек, NTSC
Аудио №1: JAP, AC-3, 2 канала, 192 Кбит/сек, 48,0 КГц
Аудио №2: ENG, AC-3, 2 канала, 192 Кбит/сек, 48,0 КГц
Скриншоты:
Скриншоты меню:
Обложки:
MediaInfo:
Общее
Полное имя : J:\VIDEO_TS\VTS_01_1.VOB
Формат : MPEG-PS
Размер файла : 1024 Мбайт
Продолжительность : 15 м.
Общий поток : 9049 Кбит/сек

Видео
Идентификатор : 224 (0xE0)
Формат : MPEG Video
Версия формата : Version 2
Профиль формата : Main@Main
Параметр BVOP формата : Да
Параметр матрицы формата : По умолчанию
Параметр GOP формата : M=3, N=13
Продолжительность : 15 м.
Битрейт : 8500 Кбит/сек
Ширина : 720 пикселей
Высота : 480 пикселей
Соотношение сторон : 2,40:1
Частота кадров : 29,970 кадров/сек
Стандарт вещания : NTSC
Цветовое пространство : YUV
Субдискретизация насыщенности : 4:2:0
Битовая глубина : 8 бит
Тип развёртки : Чересстрочная
Порядок развёртки : Верхнее поле первое
Метод сжатия : С потерями
Бит/(Пиксели*Кадры) : 0.821
Временной код первого кадра : 01:00:00:00
Оригинал временного кода : Group of pictures header
Размер потока : 960 Мбайт (94%)
Основные цвета : BT.601 NTSC
Характеристики трансфера : BT.601
Коэффициенты матрицы : BT.601

Аудио #1
Идентификатор : 189 (0xBD)-128 (0x80)
Формат : AC-3
Формат/Информация : Audio Coding 3
Расширение режима : CM (complete main)
Параметр Endianness формата : Big
Режим смешивания : DVD-Video
Продолжительность : 15 м.
Вид битрейта : Постоянный
Битрейт : 192 Кбит/сек
Каналы : 2 канала
Расположение каналов : Front: L R
Частота : 48,0 КГц
Битовая глубина : 16 бит
Метод сжатия : С потерями
Размер потока : 21,7 Мбайт (2%)

Аудио #2
Идентификатор : 189 (0xBD)-129 (0x81)
Формат : AC-3
Формат/Информация : Audio Coding 3
Расширение режима : CM (complete main)
Параметр Endianness формата : Big
Режим смешивания : DVD-Video
Продолжительность : 15 м.
Вид битрейта : Постоянный
Битрейт : 192 Кбит/сек
Каналы : 2 канала
Расположение каналов : Front: L R
Частота : 48,0 КГц
Битовая глубина : 16 бит
Метод сжатия : С потерями
Размер потока : 21,7 Мбайт (2%)

Меню
Отличия от других раздач:
Там 2-х дисковое японское издание (R2), с цензурой - Здесь американское издание (R1) от Kitty Media, нет цензуры, японская и английская звуковые дорожки, английские субтитры
Время раздачи: с 09 до 00.00, отдача: 100 кб/с (анальный инет)
1 Большая просьба, помогайте другим скачать (тогда релизов будет больше)
2 Если нет сидов - пишите в лс
3 Если сдохли постеры и скриншоты - пишите в лс


Как тут качатьЗаказ порнушки!
Добавлен:  06 ноя 2013, 10:33

Скачать торрент Смотреть онлайн
Скачать торрент

Размер: 3.64 ГБ
Скачали: 114
Статус
 

Последний сидер: 2 месяца 19 дней 8 часов 31 минуту 44 секунды назад
Приватный: Нет (DHT включён)
Нет сидов? Пиши сюдаКак скачать отдельный файл из раздачи?


Вернуться к началу
 Профиль  
 
Показать сообщения за:  Поле сортировки  
Начать новую тему Ответить на тему  [ 1 сообщение ] 


Кто сейчас на конференции

Зарегистрированные пользователи: baidu[Bot], Google [Bot], mix111, MSNbot Media, Yahoo [Bot], Yandex [Bot]


Вы не можете начинать темы
Вы не можете отвечать на сообщения
Вы не можете редактировать свои сообщения
Вы не можете удалять свои сообщения
Вы не можете добавлять вложения

Найти:
Перейти:  

Ресурс не предоставляет электронные версии произведений, а занимается лишь коллекционированием и каталогизацией ссылок, присылаемых и публикуемых на форуме нашими читателями. Если вы являетесь правообладателем какого-либо представленного материала и не желаете чтобы ссылка на него находилась в нашем каталоге, свяжитесь с нами и мы незамедлительно удалим её. Файлы для обмена на трекере предоставлены пользователями сайта, и администрация не несёт ответственности за их содержание. Просьба не заливать файлы, защищенные авторскими правами, а также файлы нелегального содержания!