Правила форума


В данном форуме отображение пиров работает не корректно, но в каждой раздаче они имеются, качайте смело.

Так же открыта возможность скачивать торренты с этого форума ГОСТЯМ!



Начать новую тему Ответить на тему  [ 1 сообщение ] 
Статистика раздачи
Размер: 1.55 ГБ | Добавлен: 08 ноя 2013, 21:47 | Скачали: 40
Сидеров: 0  [0 байт/сек]    Личеров: 0  [0 байт/сек]

Автор

СообщениеДобавлено: 08 ноя 2013, 21:47 

Не в сети
Пользователь
Пользователь
Аватара пользователя
Раздал: 190.98 ТБ
Скачал: 78.76 ТБ
Ратио: 2.425


Зарегистрирован: 29 окт 2012, 18:12
Сообщения: 227125


本当にあった人妻不倫告白 | Hontou ni Atta Hitozuma Furin Kokuhaku | Женская исповедь

#77

Год выпуска: 2013
Страна: Япония
Жанр: big tits, masturbation, netorare, oral sex, romance
Продолжительность: >1 эп. 15 мин.
Субтитры: Отсутствуют
Цензура: Присутствует
Студия: BOOTLEG
Описание:
Based on the erotic manga.
Информационные ссылки: AniDB || MAL || World Art || ХентайМаг
Исходник: DVD-5
Видео: MPEG2 | NTSC | 16x9 | 720x480 | 8000 Kbps
Аудио JAP: AC-3 | 48000Hz | 128 Kbps | 2ch
Список эпизодов:
01. The Case of Touko Motomura
Обложка:
MediaInfo:
General
Complete name : L:\VIDEO_TS\VTS_01_1.VOB
Format : MPEG-PS
File size : 1 024 MiB
Duration : 1mn 50s
Overall bit rate mode : Variable
Overall bit rate : 77.5 Mbps
Writing library : encoded by TMPGEnc Video Mastering Works 5 Version. 5.3.4.96

Video
ID : 224 (0xE0)
Format : MPEG Video
Format version : Version 2
Format profile : Main@Main
Format settings, BVOP : Yes
Format settings, Matrix : Custom
Format settings, GOP : M=3, N=16
Duration : 1mn 50s
Bit rate mode : Variable
Bit rate : 75.8 Mbps
Maximum bit rate : 8 000 Kbps
Width : 720 pixels
Height : 480 pixels
Display aspect ratio : 16:9
Frame rate : 29.970 fps
Standard : NTSC
Color space : YUV
Chroma subsampling : 4:2:0
Bit depth : 8 bits
Scan type : Interlaced
Scan order : Top Field First
Compression mode : Lossy
Bits/(Pixel*Frame) : 7.318
Stream size : 1 002 MiB (98%)
Writing library : TMPGEnc Video Mastering Works 5 Version. 5.3.4.96
Color primaries : SMPTE 170M
Transfer characteristics : SMPTE 170M
Matrix coefficients : SMPTE 170M

Audio
ID : 189 (0xBD)-128 (0x80)
Format : AC-3
Format/Info : Audio Coding 3
Mode extension : CM (complete main)
Muxing mode : DVD-Video
Duration : 1mn 50s
Bit rate mode : Constant
Bit rate : 128 Kbps
Channel(s) : 2 channels
Channel positions : Front: L R
Sampling rate : 48.0 KHz
Bit depth : 16 bits
Compression mode : Lossy
Stream size : 1.69 MiB (0%)
Меню:
Скриншоты:
Скринлист:


Как тут качатьЗаказ порнушки!
Добавлен:  08 ноя 2013, 21:47

Скачать торрент Смотреть онлайн
Скачать торрент

Размер: 1.55 ГБ
Скачали: 40
Статус
 

Последний сидер: 7 месяцев 14 дней 18 часов 11 минут 20 секунд назад
Приватный: Нет (DHT включён)
Нет сидов? Пиши сюдаКак скачать отдельный файл из раздачи?


Вернуться к началу
 Профиль  
 
Показать сообщения за:  Поле сортировки  
Начать новую тему Ответить на тему  [ 1 сообщение ] 


Кто сейчас на конференции

Зарегистрированные пользователи: BFG-1, Dariuswaync, DerekStuth, Google [Bot], MSNbot Media, Yahoo [Bot], Yandex [Bot]


Вы не можете начинать темы
Вы не можете отвечать на сообщения
Вы не можете редактировать свои сообщения
Вы не можете удалять свои сообщения
Вы не можете добавлять вложения

Найти:
Перейти:  

Ресурс не предоставляет электронные версии произведений, а занимается лишь коллекционированием и каталогизацией ссылок, присылаемых и публикуемых на форуме нашими читателями. Если вы являетесь правообладателем какого-либо представленного материала и не желаете чтобы ссылка на него находилась в нашем каталоге, свяжитесь с нами и мы незамедлительно удалим её. Файлы для обмена на трекере предоставлены пользователями сайта, и администрация не несёт ответственности за их содержание. Просьба не заливать файлы, защищенные авторскими правами, а также файлы нелегального содержания!