Правила форума


В данном форуме отображение пиров работает не корректно, но в каждой раздаче они имеются, качайте смело.

Так же открыта возможность скачивать торренты с этого форума ГОСТЯМ!



Начать новую тему Ответить на тему  [ 1 сообщение ] 
Статистика раздачи
Размер: 3.88 ГБ | Добавлен: 21 дек 2013, 15:13 | Скачали: 410
Сидеров: 1  [0 байт/сек]    Личеров: 0  [0 байт/сек]

Автор

СообщениеДобавлено: 21 дек 2013, 15:13 

Не в сети
Администратор
Администратор
Аватара пользователя
Раздал: 12.13 ТБ
Скачал: 6.2 ТБ
Ратио: 1.956


Зарегистрирован: 22 май 2012, 11:34
Сообщения: 86102



Anime Kazama Mana / Night Shift Nurses: Kazama Mana / アニメ風間愛 / Медсестры ночной смены: Казама Мана

Год производства: 2006 г.
Жанр: Anal sex, BDSM, Group sex, Oral sex, Scat, Drama, Hospital, Rape, Nurse, Toys
Серии: ep. 1
Продолжительность: ~30 min
Цензура: Отсутствует

Озвучка №1: Японская (Оригинальная)
Озвучка №2: Немецкая (Профессиональная, полное дублирование)

Режиссер: Murakami Teruaki
Автор оригинала: M no Violet
Студия: SugarBoy, Flavors Soft, Trimax

Описание RUS: Данная история продолжает тему частных клиник, в которых медсёстры используются в качестве секс игрушек. Однако, этот фильм разительно отличается от "Nurse me!" и "Slave Nurse" не в пример более мрачной атмосферой и куда большим количеством цинизма. Итак - Поступая на практику в уединенную частную клинику Мана фактически попадает в форменное рабство. И выбраться из этого царства порока практически невозможно...

Описание ENG: This anime focuses on Kazama Mana, the main character of Yakin Byoutou 2. She works for a sanatorium as an intern nurse. Mana looks up to Nightingale, and she wants to be an angel in white like her. But Mizukawa Wataru, the patient whose days are numbered, says to her that there is no angel and begins to make her the center of a sex game

Информационные ссылки: AniDB - MAL - World Art - ХентайМаг

Качество видео: DVD5
Формат видео: DVD Video
Видео кодек: MPEG2
Аудио кодек: AC3
Видео: 720х576, (4:3), 25,000 кадров/сек, ~ 6048 Кбит/сек, PAL
Аудио №1: JAP, AC-3, 2 канала, 192 Кбит/сек, 48,0 КГц
Аудио №2: GER, AC-3, 2 канала, 192 Кбит/сек, 48,0 КГц
Доп. материалы: Фотогалерея, бонус-ролик
Скриншоты:
Скриншоты меню:
Обложки:
MediaInfo:
Общее
Полное имя : J:\VIDEO_TS\VTS_09_1.VOB
Формат : MPEG-PS
Размер файла : 1024 Мбайт
Продолжительность : 21 м.
Режим общего битрейта : Переменный
Общий поток : 6562 Кбит/сек

Видео
Идентификатор : 224 (0xE0)
Формат : MPEG Video
Версия формата : Version 2
Профиль формата : Main@Main
Параметр BVOP формата : Да
Параметр матрицы формата : Выборочная
Параметр GOP формата : M=3, N=12
Продолжительность : 21 м.
Вид битрейта : Переменный
Битрейт : 6048 Кбит/сек
Максимальный битрейт : 7200 Кбит/сек
Ширина : 720 пикселей
Высота : 576 пикселей
Соотношение сторон : 16:9
Частота кадров : 25,000 кадров/сек
Стандарт вещания : PAL
Цветовое пространство : YUV
Субдискретизация насыщенности : 4:2:0
Битовая глубина : 8 бит
Тип развёртки : Чересстрочная
Порядок развёртки : Нижнее поле первое
Метод сжатия : С потерями
Бит/(Пиксели*Кадры) : 0.583
Временной код первого кадра : 01:00:00:00
Оригинал временного кода : Group of pictures header
Размер потока : 944 Мбайт (92%)
Основные цвета : BT.601 PAL
Характеристики трансфера : BT.470 System B, BT.470 System G
Коэффициенты матрицы : BT.601

Аудио #1
Идентификатор : 189 (0xBD)-128 (0x80)
Формат : AC-3
Формат/Информация : Audio Coding 3
Расширение режима : CM (complete main)
Параметр Endianness формата : Big
Режим смешивания : DVD-Video
Продолжительность : 21 м.
Вид битрейта : Постоянный
Битрейт : 192 Кбит/сек
Каналы : 2 канала
Расположение каналов : Front: L R
Частота : 48,0 КГц
Битовая глубина : 16 бит
Метод сжатия : С потерями
Размер потока : 30,0 Мбайт (3%)

Аудио #2
Идентификатор : 189 (0xBD)-129 (0x81)
Формат : AC-3
Формат/Информация : Audio Coding 3
Расширение режима : CM (complete main)
Параметр Endianness формата : Big
Режим смешивания : DVD-Video
Продолжительность : 21 м.
Вид битрейта : Постоянный
Битрейт : 192 Кбит/сек
Каналы : 2 канала
Расположение каналов : Front: L R
Частота : 48,0 КГц
Битовая глубина : 16 бит
Метод сжатия : С потерями
Размер потока : 30,0 Мбайт (3%)

Меню
Время раздачи: с 09 до 00.00, отдача: 100 кб/с (анальный инет)
1 Большая просьба, помогайте другим скачать (тогда релизов будет больше)
2 Если нет сидов - пишите в лс
3 Если сдохли постеры и скриншоты - пишите в лс


Как тут качатьЗаказ порнушки!
Добавлен:  21 дек 2013, 15:13

Скачать торрент Смотреть онлайн
Скачать торрент

Размер: 3.88 ГБ
Скачали: 410
Статус
 

Последний сидер: 13 часов 52 минуты 54 секунды назад
Приватный: Нет (DHT включён)
Нет сидов? Пиши сюдаКак скачать отдельный файл из раздачи?


Вернуться к началу
 Профиль  
 
Показать сообщения за:  Поле сортировки  
Начать новую тему Ответить на тему  [ 1 сообщение ] 


Кто сейчас на конференции

Зарегистрированные пользователи: Garant1962, Google [Bot], sergej10, Yahoo [Bot], Yandex [Bot]


Вы не можете начинать темы
Вы не можете отвечать на сообщения
Вы не можете редактировать свои сообщения
Вы не можете удалять свои сообщения
Вы не можете добавлять вложения

Найти:
Перейти:  

Ресурс не предоставляет электронные версии произведений, а занимается лишь коллекционированием и каталогизацией ссылок, присылаемых и публикуемых на форуме нашими читателями. Если вы являетесь правообладателем какого-либо представленного материала и не желаете чтобы ссылка на него находилась в нашем каталоге, свяжитесь с нами и мы незамедлительно удалим её. Файлы для обмена на трекере предоставлены пользователями сайта, и администрация не несёт ответственности за их содержание. Просьба не заливать файлы, защищенные авторскими правами, а также файлы нелегального содержания!