Начать новую тему Ответить на тему  [ 1 сообщение ] 
Статистика раздачи
Размер: 1.14 ГБ | Добавлен: 09 окт 2017, 04:09 | Скачали: 439
Сидеров: 160  [0 байт/сек]    Личеров: 59  [0 байт/сек]

Автор

СообщениеДобавлено: 09 окт 2017, 04:09 

Не в сети
Супераплоадер
Супераплоадер
Аватара пользователя
Раздал: 797.1 ГБ
Скачал: 227.51 ГБ
Ратио: 3.504


Зарегистрирован: 10 окт 2013, 18:02
Сообщения: 1995


Год производства: 2017
Жанр: All Sex,Big Tits D-DD Cup, Black Hair, Hardcore Sex, High Heels, Shaved Pussy, Tattoos, Tits Cumshot
В ролях: Raven Bay
Продолжительность:17mn 52s

Raven Bay so sexy in her jeans shorts as she starts sucking a 9 inch cock attempting deepthroat. Raven has her pussy eaten during this live show before being fucked hardcore taking it deep missionary and doggystyle then riding Eric ending with a messy cumshot to her tits.

Тип видео : HD
Формат видео : MP4
Video
ID : 1
Format : AVC
Format/Info : Advanced Video Codec
Format profile : High@L4
Format settings, CABAC : No
Format settings, ReFrames : 2 frames
Format settings, GOP : M=1, N=90
Codec ID : avc1
Codec ID/Info : Advanced Video Coding
Duration : 17mn 52s
Bit rate : 8 994 Kbps
Width : 1 920 pixels
Height : 1 080 pixels
Display aspect ratio : 16:9
Frame rate mode : Variable
Frame rate : 29.970 (30000/1001) fps
Minimum frame rate : 28.143 fps
Maximum frame rate : 30.000 fps
Standard : NTSC
Color space : YUV
Chroma subsampling : 4:2:0
Bit depth : 8 bits
Scan type : Progressive
Bits/(Pixel*Frame) : 0.145
Stream size : 1.12 GiB (98%)
Encoded date : UTC 1904-01-01 00:00:00
Tagged date : UTC 1904-01-01 00:00:00
Color range : Limited
Color primaries : BT.709
Transfer characteristics : BT.709
Matrix coefficients : BT.709

Audio
ID : 2
Format : AAC
Format/Info : Advanced Audio Codec
Format profile : LC
Codec ID : 40
Duration : 17mn 52s
Bit rate mode : Constant
Bit rate : 157 Kbps
Channel(s) : 2 channels
Channel positions : Front: L R
Sampling rate : 48.0 KHz
Frame rate : 46.875 fps (1024 spf)
Compression mode : Lossy
Stream size : 20.1 MiB (2%)
Default : Yes
Alternate group : 1
Encoded date : UTC 1904-01-01 00:00:00
Tagged date : UTC 1904-01-01 00:00:00

Скриншоты:


Как тут качатьЗаказ порнушки!
Добавлен:  09 окт 2017, 04:09

Скачать торрент Смотреть онлайн
Скачать торрент

Размер: 1.14 ГБ
Скачали: 439
Статус Проверен
 

Последний сидер: 2 часа 10 минут 53 секунды назад
Приватный: Нет (DHT включён)
Нет сидов? Пиши сюдаКак скачать отдельный файл из раздачи?


Вернуться к началу
 Профиль  
 
Показать сообщения за:  Поле сортировки  
Начать новую тему Ответить на тему  [ 1 сообщение ] 


Кто сейчас на конференции

Зарегистрированные пользователи: 432am, oihar, Yahoo [Bot], Yandex [Bot]


Вы не можете начинать темы
Вы не можете отвечать на сообщения
Вы не можете редактировать свои сообщения
Вы не можете удалять свои сообщения
Вы не можете добавлять вложения

Найти:
Перейти:  

Ресурс не предоставляет электронные версии произведений, а занимается лишь коллекционированием и каталогизацией ссылок, присылаемых и публикуемых на форуме нашими читателями. Если вы являетесь правообладателем какого-либо представленного материала и не желаете чтобы ссылка на него находилась в нашем каталоге, свяжитесь с нами и мы незамедлительно удалим её. Файлы для обмена на трекере предоставлены пользователями сайта, и администрация не несёт ответственности за их содержание. Просьба не заливать файлы, защищенные авторскими правами, а также файлы нелегального содержания!