Начать новую тему Ответить на тему  [ 1 сообщение ] 
Статистика раздачи
Размер: 4.01 ГБ | Добавлен: 12 окт 2017, 03:34 | Скачали: 3262
Сидеров: 21  [0 байт/сек]    Личеров: 15  [0 байт/сек]

Автор

СообщениеДобавлено: 12 окт 2017, 03:34 

Не в сети
Супераплоадер
Супераплоадер
Аватара пользователя
Раздал: 653.4 ГБ
Скачал: 187.63 ГБ
Ратио: 3.482


Зарегистрирован: 10 окт 2013, 18:02
Сообщения: 1657


Имя актрисы: Caomei Bala, Penelope Cum
Название ролика: Neverending Love Episode 3 - Timeless
Подсайт и сайт: VivThomas.com / MetArt.com

Год производства: 2017 г.
Жанр: analingus, brunette, cunnilingus, fingering, girl-girl, kissing, lesbian, lesbian sex, masturbate
Продолжительность:00:21:48

Описание: Gorgeous Penelope Cum masturbates in the shower as episode three of “Neverending Love” begins, then asks her cute roommate Caomei Bala to dry her. She guides Caomei’s hands all over her beautiful naked body, then tugs Caomei’s dress down so she can fondle her perfect breasts. She squeezes Caomei’s ass, kisses her way down her cleavage, sucking her nipples stiff, and pushes her onto the bed. Licking her fingers, she slides them into Caomei’s panties and starts fingering her pussy, making her gasp and moan as she frigs her avidly. Penelope peels off Caomei’s panties and goes down to eat her hairy pussy, fucking her with two wet fingers as she licks her clit, driving her wild. Flipping her onto her front, Penelope sucks and frigs her pussy hard from behind, making her ass cheeks wobble invitingly. She turns her over again, fingerbanging her ferociously, coaxing her to an orgasm that makes her whole body shake. Penelope guides Caomei’s hand down to her pussy and the cute babe spreads her open and fingers her, then licks her clit skillfully as she thrusts her fingers deep. Penelope clasps a hand over her mouth to muffle her screams as an intense orgasm hits her. Utterly sated, the girls kiss sloppily through the afterglow of their lust.


Тип видео : HD
Формат видео : MP4
Video
ID : 1
Format : AVC
Format/Info : Advanced Video Codec
Format profile : Main@L5.1
Format settings, CABAC : Yes
Format settings, ReFrames : 3 frames
Codec ID : avc1
Codec ID/Info : Advanced Video Coding
Duration : 21mn 48s
Bit rate : 26.0 Mbps
Width : 3 840 pixels
Height : 2 160 pixels
Display aspect ratio : 16:9
Frame rate mode : Constant
Frame rate : 23.976 (24000/1001) fps
Standard : NTSC
Color space : YUV
Chroma subsampling : 4:2:0
Bit depth : 8 bits
Scan type : Progressive
Bits/(Pixel*Frame) : 0.131
Stream size : 3.96 GiB (99%)
Encoded date : UTC 1904-01-01 00:00:00
Tagged date : UTC 1904-01-01 00:00:00
Color range : Limited
Color primaries : BT.709
Transfer characteristics : BT.709
Matrix coefficients : BT.709

Audio
ID : 2
Format : AAC
Format/Info : Advanced Audio Codec
Format profile : LC
Codec ID : 40
Duration : 21mn 48s
Duration_LastFrame : -2ms
Bit rate mode : Constant
Bit rate : 317 Kbps
Channel(s) : 2 channels
Channel positions : Front: L R
Sampling rate : 48.0 KHz
Frame rate : 46.875 fps (1024 spf)
Compression mode : Lossy
Stream size : 49.5 MiB (1%)
Default : Yes
Alternate group : 1
Encoded date : UTC 1904-01-01 00:00:00
Tagged date : UTC 1904-01-01 00:00:00

Скриншоты:


Как тут качатьЗаказ порнушки!
Добавлен:  12 окт 2017, 03:34

Скачать торрент Смотреть онлайн
Скачать торрент

Размер: 4.01 ГБ
Скачали: 3262
Статус Проверен
 

Последний сидер: 1 день 11 часов 26 минут 46 секунд назад
Приватный: Нет (DHT включён)
Нет сидов? Пиши сюдаКак скачать отдельный файл из раздачи?


Вернуться к началу
 Профиль  
 
Показать сообщения за:  Поле сортировки  
Начать новую тему Ответить на тему  [ 1 сообщение ] 


Кто сейчас на конференции

Зарегистрированные пользователи: Google [Bot], Majestic-12 [Bot], Yandex [Bot]


Вы не можете начинать темы
Вы не можете отвечать на сообщения
Вы не можете редактировать свои сообщения
Вы не можете удалять свои сообщения
Вы не можете добавлять вложения

Найти:
Перейти:  

Ресурс не предоставляет электронные версии произведений, а занимается лишь коллекционированием и каталогизацией ссылок, присылаемых и публикуемых на форуме нашими читателями. Если вы являетесь правообладателем какого-либо представленного материала и не желаете чтобы ссылка на него находилась в нашем каталоге, свяжитесь с нами и мы незамедлительно удалим её. Файлы для обмена на трекере предоставлены пользователями сайта, и администрация не несёт ответственности за их содержание. Просьба не заливать файлы, защищенные авторскими правами, а также файлы нелегального содержания!