Начать новую тему Ответить на тему  [ 1 сообщение ] 
Статистика раздачи
Размер: 4.46 ГБ | Добавлен: 12 окт 2017, 04:09 | Скачали: 9515
Сидеров: 287  [0 байт/сек]    Личеров: 223  [0 байт/сек]

Автор

СообщениеДобавлено: 12 окт 2017, 04:09 

Не в сети
Супераплоадер
Супераплоадер
Аватара пользователя
Раздал: 647.9 ГБ
Скачал: 184.61 ГБ
Ратио: 3.510


Зарегистрирован: 10 окт 2013, 18:02
Сообщения: 995


Имя актрисы: Sloan Harper
Название ролика: Blonde With Natural Tits Hops On The Bus
Номер на сайте: bb16160
Подсайт и сайт: BangBus.com / BangBros.com

Год производства: 2017 г.
Жанр: Amateur, Big Tits, Blonde, Blowjob, Busty, Cow Girl, Cum Shot, Doggystyle, Facial, Hardcore, Missionary, Riding, Shaved, Vaginal, Young
Продолжительность: 01:03:17

Описание:
The bus does not stop lurking the streets of Miami, searching for those desperate chicks in need of some quick cash. This week we ran into a hot blonde with giant tits. It took some time to convince this dime piece of jumping in the bus, but man was she worth it. This chick has one of the hottest bodies we’ve seen in a while. We offered her 300 dollars to get her pussy eaten out. and she agreed. From there, she was horny enough to let Rob Carpenter penetrate her pink hole.

Тип видео : HD
Формат видео : MP4
Video
ID : 1
Format : AVC
Format/Info : Advanced Video Codec
Format profile : High@L4.1
Format settings, CABAC : Yes
Format settings, ReFrames : 4 frames
Codec ID : avc1
Codec ID/Info : Advanced Video Coding
Duration : 1h 3mn
Bit rate mode : Variable
Bit rate : 10.0 Mbps
Maximum bit rate : 12.0 Mbps
Width : 1 920 pixels
Height : 1 080 pixels
Display aspect ratio : 16:9
Frame rate mode : Constant
Frame rate : 29.970 (30000/1001) fps
Standard : NTSC
Color space : YUV
Chroma subsampling : 4:2:0
Bit depth : 8 bits
Scan type : Progressive
Bits/(Pixel*Frame) : 0.162
Stream size : 4.44 GiB (99%)
Encoded date : UTC 1904-01-01 00:00:00
Tagged date : UTC 1904-01-01 00:00:00
Color range : Limited
Color primaries : BT.709
Transfer characteristics : BT.709
Matrix coefficients : BT.709

Audio
ID : 2
Format : AAC
Format/Info : Advanced Audio Codec
Format profile : LC
Codec ID : 40
Duration : 1h 3mn
Duration_LastFrame : -7ms
Bit rate mode : Constant
Bit rate : 48.0 Kbps
Channel(s) : 2 channels
Channel positions : Front: L R
Sampling rate : 32.0 KHz
Frame rate : 31.250 fps (1024 spf)
Compression mode : Lossy
Stream size : 20.9 MiB (0%)
Default : Yes
Alternate group : 1
Encoded date : UTC 1904-01-01 00:00:00
Tagged date : UTC 1904-01-01 00:00:00

Скриншоты:


Как тут качатьЗаказ порнушки!
Добавлен:  12 окт 2017, 04:09

Скачать торрент Смотреть онлайн
Скачать торрент

Размер: 4.46 ГБ
Скачали: 9515
Статус Проверен
 

Последний сидер: 4 часа 53 минуты 38 секунд назад
Приватный: Нет (DHT включён)
Нет сидов? Пиши сюдаКак скачать отдельный файл из раздачи?


Вернуться к началу
 Профиль  
 
Показать сообщения за:  Поле сортировки  
Начать новую тему Ответить на тему  [ 1 сообщение ] 


Кто сейчас на конференции

Зарегистрированные пользователи: Google [Bot], Yandex [Bot]


Вы не можете начинать темы
Вы не можете отвечать на сообщения
Вы не можете редактировать свои сообщения
Вы не можете удалять свои сообщения
Вы не можете добавлять вложения

Найти:
Перейти:  

Ресурс не предоставляет электронные версии произведений, а занимается лишь коллекционированием и каталогизацией ссылок, присылаемых и публикуемых на форуме нашими читателями. Если вы являетесь правообладателем какого-либо представленного материала и не желаете чтобы ссылка на него находилась в нашем каталоге, свяжитесь с нами и мы незамедлительно удалим её. Файлы для обмена на трекере предоставлены пользователями сайта, и администрация не несёт ответственности за их содержание. Просьба не заливать файлы, защищенные авторскими правами, а также файлы нелегального содержания!