Начать новую тему Ответить на тему  [ 1 сообщение ] 
Статистика раздачи
Размер: 3.03 ГБ | Добавлен: 12 окт 2017, 19:54 | Скачали: 1232
Сидеров: 98  [1.6 КБ/сек]    Личеров: 69  [0 байт/сек]

Автор

СообщениеДобавлено: 12 окт 2017, 19:54 

Не в сети
Супераплоадер
Супераплоадер
Аватара пользователя
Раздал: 647.9 ГБ
Скачал: 184.61 ГБ
Ратио: 3.510


Зарегистрирован: 10 окт 2013, 18:02
Сообщения: 1003


Год производства: 2017
Жанр: All sex, Anal, Blowjob, DP, Teen, Threesome, Hardcore
В ролях: Diana Dali Double End Diana
Продолжительность:21mn 23s
Название ролика: Double End Diana
Подсайт и сайт: WeLikeToSuck.com

Тип видео : HD
Формат видео : MP4
Video
ID : 1
Format : AVC
Format/Info : Advanced Video Codec
Format profile : Main@L5.1
Format settings, CABAC : Yes
Format settings, ReFrames : 4 frames
Codec ID : avc1
Codec ID/Info : Advanced Video Coding
Duration : 21mn 23s
Bit rate : 20.0 Mbps
Width : 3 840 pixels
Height : 2 160 pixels
Display aspect ratio : 16:9
Frame rate mode : Constant
Frame rate : 25.000 fps
Standard : PAL
Color space : YUV
Chroma subsampling : 4:2:0
Bit depth : 8 bits
Scan type : Progressive
Bits/(Pixel*Frame) : 0.096
Stream size : 2.99 GiB (98%)
Encoded date : UTC 1904-01-01 00:00:00
Tagged date : UTC 1904-01-01 00:00:00
Color range : Limited
Color primaries : BT.709
Transfer characteristics : BT.709
Matrix coefficients : BT.709

Audio
ID : 2
Format : AAC
Format/Info : Advanced Audio Codec
Format profile : LC
Codec ID : 40
Duration : 21mn 23s
Duration_LastFrame : -11ms
Bit rate mode : Constant
Bit rate : 317 Kbps
Channel(s) : 2 channels
Channel positions : Front: L R
Sampling rate : 48.0 KHz
Frame rate : 46.875 fps (1024 spf)
Compression mode : Lossy
Stream size : 48.5 MiB (2%)
Default : Yes
Alternate group : 1
Encoded date : UTC 1904-01-01 00:00:00
Tagged date : UTC 1904-01-01 00:00:00


Скриншоты:


Как тут качатьЗаказ порнушки!
Добавлен:  12 окт 2017, 19:54

Скачать торрент Смотреть онлайн
Скачать торрент

Размер: 3.03 ГБ
Скачали: 1232
Статус Проверен
 

Последний сидер: 3 минуты 38 секунд назад
Приватный: Нет (DHT включён)
Нет сидов? Пиши сюдаКак скачать отдельный файл из раздачи?


Вернуться к началу
 Профиль  
 
Показать сообщения за:  Поле сортировки  
Начать новую тему Ответить на тему  [ 1 сообщение ] 


Кто сейчас на конференции

Зарегистрированные пользователи: Google [Bot], lertgj, Sam, Yahoo [Bot], Yandex [Bot]


Вы не можете начинать темы
Вы не можете отвечать на сообщения
Вы не можете редактировать свои сообщения
Вы не можете удалять свои сообщения
Вы не можете добавлять вложения

Найти:
Перейти:  

Ресурс не предоставляет электронные версии произведений, а занимается лишь коллекционированием и каталогизацией ссылок, присылаемых и публикуемых на форуме нашими читателями. Если вы являетесь правообладателем какого-либо представленного материала и не желаете чтобы ссылка на него находилась в нашем каталоге, свяжитесь с нами и мы незамедлительно удалим её. Файлы для обмена на трекере предоставлены пользователями сайта, и администрация не несёт ответственности за их содержание. Просьба не заливать файлы, защищенные авторскими правами, а также файлы нелегального содержания!