Начать новую тему Ответить на тему  [ 1 сообщение ] 
Статистика раздачи
Размер: 6.61 ГБ | Добавлен: 12 окт 2017, 20:05 | Скачали: 43
Сидеров: 72  [0 байт/сек]    Личеров: 83  [0 байт/сек]
Автор

СообщениеДобавлено: 12 окт 2017, 20:05 

Не в сети
Супераплоадер
Супераплоадер
Аватара пользователя
Раздал: 1011.16 ГБ
Скачал: 272.47 ГБ
Ратио: 3.711


Зарегистрирован: 10 окт 2013, 18:02
Сообщения: 3054
Имя актрисы: Aria Skye
Название ролика: After School Facial
Подсайт и сайт: Tiny4k.com
Год производства: 2017 г.
Жанр: All sex, Brunette, Blowjob, Facial, Glasses, Shaved, Pussy Licking, Hardcore
Продолжительность: 00:36:18

Тип видео : HD
Формат видео : MP4
Video
ID : 1
Format : AVC
Format/Info : Advanced Video Codec
Format profile : [email protected]
Format settings, CABAC : No
Format settings, ReFrames : 1 frame
Codec ID : avc1
Codec ID/Info : Advanced Video Coding
Duration : 36mn 18s
Bit rate : 25.9 Mbps
Width : 3 840 pixels
Height : 2 160 pixels
Display aspect ratio : 16:9
Frame rate mode : Constant
Frame rate : 59.940 (60000/1001) fps
Color space : YUV
Chroma subsampling : 4:2:0
Bit depth : 8 bits
Scan type : Progressive
Bits/(Pixel*Frame) : 0.052
Stream size : 6.57 GiB (99%)
Writing library : Zencoder Video Encoding System
Encoded date : UTC 1904-01-01 00:00:00
Tagged date : UTC 1904-01-01 00:00:00
Color range : Limited
Color primaries : BT.709
Transfer characteristics : BT.709
Matrix coefficients : BT.709

Audio
ID : 2
Format : AAC
Format/Info : Advanced Audio Codec
Format profile : LC
Codec ID : 40
Duration : 36mn 18s
Bit rate mode : Constant
Bit rate : 128 Kbps
Channel(s) : 2 channels
Channel positions : Front: L R
Sampling rate : 48.0 KHz
Frame rate : 46.875 fps (1024 spf)
Compression mode : Lossy
Stream size : 33.2 MiB (0%)
Default : Yes
Alternate group : 1
Encoded date : UTC 1904-01-01 00:00:00
Tagged date : UTC 1904-01-01 00:00:00

Скриншоты:



Как тут качатьЗаказ порнушки!
Добавлен:  12 окт 2017, 20:05

Скачать торрент Магнет ссылка
Скачать торрент

Размер: 6.61 ГБ
Скачали: 43
Статус Проверен
 
Последний сидер: 2 дня 34 минуты 14 секунд назад
Приватный: Нет (DHT включён)
Нет сидов? Пиши сюдаКак скачать отдельный файл из раздачи?


Вернуться к началу
 Профиль  
 
Показать сообщения за:  Поле сортировки  
Начать новую тему Ответить на тему  [ 1 сообщение ] 


Кто сейчас на конференции

Зарегистрированные пользователи: Google [Bot], Yandex [Bot]


Вы не можете начинать темы
Вы не можете отвечать на сообщения
Вы не можете редактировать свои сообщения
Вы не можете удалять свои сообщения
Вы не можете добавлять вложения

Найти:
Перейти: