Начать новую тему Ответить на тему  [ 1 сообщение ] 
Статистика раздачи
Размер: 2.04 ГБ | Добавлен: 13 окт 2017, 03:29 | Скачали: 4032
Сидеров: 143  [465.07 КБ/сек]    Личеров: 87  [0 байт/сек]

Автор

СообщениеДобавлено: 13 окт 2017, 03:29 

Не в сети
Супераплоадер
Супераплоадер
Аватара пользователя
Раздал: 647.9 ГБ
Скачал: 184.61 ГБ
Ратио: 3.510


Зарегистрирован: 10 окт 2013, 18:02
Сообщения: 1003


Год производства: 2017
Название ролика: Takes Down Two Angry Roomies In 3-Way Lesbian Dom Session
Жанр: femdom, straight, lesbian, lesbian anal, LezDom, dominatrix, slave, Corporal Punishment, Pussy Eating, Face Sitting, humiliation, Fingering, bondage, strap on, domination, spanking
В ролях: Juliette March, Dahlia Sky, Mona Wales
Продолжительность: 57mn 3s
Подсайт и сайт: Whipped Ass

Roommates Dahlia Sky and Juliette March aren't getting along at all. So they've sought the unorthodox counseling styles of Mona Wales, who helps them find common ground through hardcore lesbian domination! Immediately, Juliette is made to take the full brunt of the punishment, guided by Mona. Dahlia takes out her aggressions on her ass, spanking her and scolding her for being a selfish bitch. She and Mona then strip her naked, and put her to use, licking Dahlia's beautiful puckered ass and pussy. Mona recognizes that both of her clients need correction, so she cracks out her flogger, and flogs Dahlia while Dahlia smothers herself in her roommates hot wet cunt. Dahlia is then instructed to use another toy on Juliette, and works it into her hungry pussy while she gets flogged by Mona. Both roommates cum hard and wet under Mona's expert counseling. But this clearly isn't enough to hammer the message home. Juliette is then put on the floor and turned into Dahlia's and Mona's hardcore lesbian fucktoy. Mona pounds a huge strap-on into her slutty pussy before later sliding it straight into her ass. That giant strap-on then goes back into her pussy while Dahlia fucks her asshole deep and hard. Juliette cums repeatedly while getting selfishly double penetrated, cropped, spanked and flogged, eventually learning the absolute lesson... not to fuck with her roommate, because her roommate will literally fuck her back!

Тип видео : HD
Формат видео : MP4
Video
ID : 1
Format : AVC
Format/Info : Advanced Video Codec
Format profile : High@L3.2
Format settings, CABAC : Yes
Format settings, ReFrames : 2 frames
Codec ID : avc1
Codec ID/Info : Advanced Video Coding
Duration : 57mn 3s
Bit rate mode : Variable
Bit rate : 4 997 Kbps
Maximum bit rate : 7 000 Kbps
Width : 1 280 pixels
Height : 720 pixels
Display aspect ratio : 16:9
Frame rate mode : Constant
Frame rate : 29.970 (30000/1001) fps
Color space : YUV
Chroma subsampling : 4:2:0
Bit depth : 8 bits
Scan type : Progressive
Bits/(Pixel*Frame) : 0.181
Stream size : 1.99 GiB (97%)
Encoded date : UTC 1904-01-01 00:00:00
Tagged date : UTC 1904-01-01 00:00:00

Audio
ID : 2
Format : AAC
Format/Info : Advanced Audio Codec
Format profile : LC
Codec ID : 40
Duration : 57mn 3s
Bit rate mode : Constant
Bit rate : 126 Kbps
Channel(s) : 2 channels
Channel positions : Front: L R
Sampling rate : 44.1 KHz
Frame rate : 43.066 fps (1024 spf)
Compression mode : Lossy
Stream size : 51.3 MiB (2%)
Default : Yes
Alternate group : 1
Encoded date : UTC 1904-01-01 00:00:00
Tagged date : UTC 1904-01-01 00:00:00

Скриншоты:


Как тут качатьЗаказ порнушки!
Добавлен:  13 окт 2017, 03:29

Скачать торрент Смотреть онлайн
Скачать торрент

Размер: 2.04 ГБ
Скачали: 4032
Статус Проверен
 

Последний сидер: 59 секунд назад
Приватный: Нет (DHT включён)
Нет сидов? Пиши сюдаКак скачать отдельный файл из раздачи?


Вернуться к началу
 Профиль  
 
Показать сообщения за:  Поле сортировки  
Начать новую тему Ответить на тему  [ 1 сообщение ] 


Кто сейчас на конференции

Зарегистрированные пользователи: Google [Bot], Yandex [Bot], YandexMetrika


Вы не можете начинать темы
Вы не можете отвечать на сообщения
Вы не можете редактировать свои сообщения
Вы не можете удалять свои сообщения
Вы не можете добавлять вложения

Найти:
Перейти:  

Ресурс не предоставляет электронные версии произведений, а занимается лишь коллекционированием и каталогизацией ссылок, присылаемых и публикуемых на форуме нашими читателями. Если вы являетесь правообладателем какого-либо представленного материала и не желаете чтобы ссылка на него находилась в нашем каталоге, свяжитесь с нами и мы незамедлительно удалим её. Файлы для обмена на трекере предоставлены пользователями сайта, и администрация не несёт ответственности за их содержание. Просьба не заливать файлы, защищенные авторскими правами, а также файлы нелегального содержания!