Начать новую тему Ответить на тему  [ 1 сообщение ] 
Статистика раздачи
Размер: 432.64 МБ | Добавлен: 13 окт 2017, 04:02 | Скачали: 1954
Сидеров: 142  [15.21 КБ/сек]    Личеров: 93  [0 байт/сек]

Автор

СообщениеДобавлено: 13 окт 2017, 04:02 

Не в сети
Супераплоадер
Супераплоадер
Аватара пользователя
Раздал: 647.9 ГБ
Скачал: 184.61 ГБ
Ратио: 3.510


Зарегистрирован: 10 окт 2013, 18:02
Сообщения: 1003


Год производства: 2017
Название ролика: ASHLI ADDAMS GIVES A PANTYJOB
Жанр: All Sex,Big Tits
В ролях: Ashli Addams
Продолжительность: 14mn 40s
Подсайт и сайт: Pantyjobs

This sweet curvy teen comes to us from a small town in the Midwest. This is her first time ever on camera and she is of course nervous, well she was until she got that cock between her legs. Then that panty teasin’ instinct took over and all was good.

Тип видео : HD
Формат видео : MP4
Video
ID : 1
Format : AVC
Format/Info : Advanced Video Codec
Format profile : Main@L4
Format settings, CABAC : Yes
Format settings, ReFrames : 4 frames
Codec ID : avc1
Codec ID/Info : Advanced Video Coding
Duration : 14mn 40s
Bit rate : 4 000 Kbps
Width : 1 920 pixels
Height : 1 080 pixels
Display aspect ratio : 16:9
Frame rate mode : Variable
Frame rate : 29.970 (29970/1000) fps
Minimum frame rate : 14.985 fps
Maximum frame rate : 29.970 fps
Color space : YUV
Chroma subsampling : 4:2:0
Bit depth : 8 bits
Scan type : Progressive
Bits/(Pixel*Frame) : 0.064
Stream size : 419 MiB (97%)
Writing library : x264 core 142 r2479 dd79a61
Encoding settings : cabac=1 / ref=4 / deblock=1:-1:-1 / analyse=0x1:0x131 / me=umh / subme=10 / psy=1 / psy_rd=1.00:0.15 / mixed_ref=1 / me_range=24 / chroma_me=1 / trellis=2 / 8x8dct=0 / cqm=0 / deadzone=21,11 / fast_pskip=1 / chroma_qp_offset=-3 / threads=12 / lookahead_threads=2 / sliced_threads=0 / nr=0 / decimate=1 / interlaced=0 / bluray_compat=0 / constrained_intra=0 / bframes=8 / b_pyramid=2 / b_adapt=2 / b_bias=0 / direct=3 / weightb=1 / open_gop=0 / weightp=2 / keyint=300 / keyint_min=30 / scenecut=40 / intra_refresh=0 / rc_lookahead=60 / rc=2pass / mbtree=1 / bitrate=4000 / ratetol=1.0 / qcomp=0.60 / qpmin=0 / qpmax=69 / qpstep=4 / cplxblur=20.0 / qblur=0.5 / vbv_maxrate=20000 / vbv_bufsize=25000 / nal_hrd=none / filler=0 / ip_ratio=1.40 / aq=1:1.00
Encoded date : UTC 1904-01-01 00:00:00
Tagged date : UTC 1904-01-01 00:00:00
Color range : Limited
Color primaries : BT.709
Transfer characteristics : BT.709
Matrix coefficients : BT.709

Audio
ID : 2
Format : AAC
Format/Info : Advanced Audio Codec
Format profile : LC
Codec ID : 40
Duration : 14mn 40s
Duration_LastFrame : 1ms
Bit rate mode : Constant
Bit rate : 117 Kbps
Channel(s) : 2 channels
Channel positions : Front: L R
Sampling rate : 48.0 KHz
Frame rate : 46.875 fps (1024 spf)
Compression mode : Lossy
Stream size : 12.3 MiB (3%)
Default : Yes
Alternate group : 1
Encoded date : UTC 1904-01-01 00:00:00
Tagged date : UTC 1904-01-01 00:00:00



Скриншоты:


Как тут качатьЗаказ порнушки!
Добавлен:  13 окт 2017, 04:02

Скачать торрент Смотреть онлайн
Скачать торрент

Размер: 432.64 МБ
Скачали: 1954
Статус Проверен
 

Последний сидер: 25 минут 4 секунды назад
Приватный: Нет (DHT включён)
Нет сидов? Пиши сюдаКак скачать отдельный файл из раздачи?


Вернуться к началу
 Профиль  
 
Показать сообщения за:  Поле сортировки  
Начать новую тему Ответить на тему  [ 1 сообщение ] 


Кто сейчас на конференции

Зарегистрированные пользователи: Google [Bot], Yandex [Bot]


Вы не можете начинать темы
Вы не можете отвечать на сообщения
Вы не можете редактировать свои сообщения
Вы не можете удалять свои сообщения
Вы не можете добавлять вложения

Найти:
Перейти:  

Ресурс не предоставляет электронные версии произведений, а занимается лишь коллекционированием и каталогизацией ссылок, присылаемых и публикуемых на форуме нашими читателями. Если вы являетесь правообладателем какого-либо представленного материала и не желаете чтобы ссылка на него находилась в нашем каталоге, свяжитесь с нами и мы незамедлительно удалим её. Файлы для обмена на трекере предоставлены пользователями сайта, и администрация не несёт ответственности за их содержание. Просьба не заливать файлы, защищенные авторскими правами, а также файлы нелегального содержания!