Начать новую тему Ответить на тему  [ 1 сообщение ] 
Статистика раздачи
Размер: 943.51 МБ | Добавлен: 20 окт 2017, 03:47 | Скачали: 6275
Сидеров: 72  [0 байт/сек]    Личеров: 21  [0 байт/сек]

Автор

СообщениеДобавлено: 20 окт 2017, 03:47 

Не в сети
Супераплоадер
Супераплоадер
Аватара пользователя
Раздал: 650.75 ГБ
Скачал: 186.65 ГБ
Ратио: 3.486


Зарегистрирован: 10 окт 2013, 18:02
Сообщения: 1287


Имя актрисы: Sandra Bell
Название ролика: Multiple squirting for Czech blonde
Подсайт и сайт: MassageRooms.com / SexyHub.com

Год производства: 2017 г.
Жанр: Squirting, All Sex
Продолжительность: 00:21:13

Описание: Sandra Bell is relaxing on the massage table, awaiting strong hands to soothe her woes. Enter Radek, a chiseled hunk of man. He introduces himself to the blonde babe, grabs the oil, and gets to work. Radek starts at her neck and shoulders, then works his way down her back, bringing Sandra to a state of pure relaxation. A giggle escapes from Sandra's lips as Radek spreads her legs, and she gasps from pleasure when he inserts a finger into her wet pussy. Vigorously fingering her while holding her big tits for stability, Radek makes Sandra squirt with some fast thrusting. After the orgasms, Sandra grabs Radek by the cock, pulling it out of his pants and sucking it, making it so wet that when he flips her over to fuck her from behind it slides right in. After fucking in doggystyle and missionary position, both Sandra and Radek are covered in sweat, and the stud unleashes his cum all over her ass!

Тип видео : HD
Формат видео : MP4
Video
ID : 1
Format : AVC
Format/Info : Advanced Video Codec
Format profile : High@L4.1
Format settings, CABAC : Yes
Format settings, ReFrames : 5 frames
Codec ID : avc1
Codec ID/Info : Advanced Video Coding
Duration : 21mn 13s
Bit rate : 6 000 Kbps
Width : 1 920 pixels
Height : 1 080 pixels
Display aspect ratio : 16:9
Frame rate mode : Constant
Frame rate : 25.000 fps
Color space : YUV
Chroma subsampling : 4:2:0
Bit depth : 8 bits
Scan type : Progressive
Bits/(Pixel*Frame) : 0.116
Stream size : 913 MiB (97%)
Writing library : x264 core 148 r2744 b97ae06
Encoding settings : cabac=1 / ref=5 / deblock=1:0:0 / analyse=0x3:0x113 / me=hex / subme=8 / psy=1 / psy_rd=1.00:0.00 / mixed_ref=1 / me_range=16 / chroma_me=1 / trellis=2 / 8x8dct=1 / cqm=0 / deadzone=21,11 / fast_pskip=1 / chroma_qp_offset=-2 / threads=34 / lookahead_threads=5 / sliced_threads=0 / nr=0 / decimate=1 / interlaced=0 / bluray_compat=0 / constrained_intra=0 / bframes=3 / b_pyramid=2 / b_adapt=1 / b_bias=0 / direct=3 / weightb=1 / open_gop=0 / weightp=2 / keyint=60 / keyint_min=6 / scenecut=40 / intra_refresh=0 / rc_lookahead=50 / rc=abr / mbtree=1 / bitrate=6000 / ratetol=1.0 / qcomp=0.60 / qpmin=0 / qpmax=69 / qpstep=4 / ip_ratio=1.40 / aq=1:1.00
Encoded date : UTC 1904-01-01 00:00:00
Tagged date : UTC 1904-01-01 00:00:00

Audio
ID : 2
Format : AAC
Format/Info : Advanced Audio Codec
Format profile : LC
Codec ID : 40
Duration : 21mn 13s
Bit rate mode : Constant
Bit rate : 192 Kbps
Channel(s) : 2 channels
Channel positions : Front: L R
Sampling rate : 48.0 KHz
Frame rate : 46.875 fps (1024 spf)
Compression mode : Lossy
Stream size : 29.1 MiB (3%)
Default : Yes
Alternate group : 1
Encoded date : UTC 1904-01-01 00:00:00
Tagged date : UTC 1904-01-01 00:00:00


Скриншоты:


Как тут качатьЗаказ порнушки!
Добавлен:  20 окт 2017, 03:47

Скачать торрент Смотреть онлайн
Скачать торрент

Размер: 943.51 МБ
Скачали: 6275
Статус Проверен
 

Последний сидер: 5 часов 26 минут 42 секунды назад
Приватный: Нет (DHT включён)
Нет сидов? Пиши сюдаКак скачать отдельный файл из раздачи?


Вернуться к началу
 Профиль  
 
Показать сообщения за:  Поле сортировки  
Начать новую тему Ответить на тему  [ 1 сообщение ] 


Кто сейчас на конференции

Зарегистрированные пользователи: baidu[Bot], Google [Bot], redrios, Sam, Yandex [Bot]


Вы не можете начинать темы
Вы не можете отвечать на сообщения
Вы не можете редактировать свои сообщения
Вы не можете удалять свои сообщения
Вы не можете добавлять вложения

Найти:
Перейти:  

Ресурс не предоставляет электронные версии произведений, а занимается лишь коллекционированием и каталогизацией ссылок, присылаемых и публикуемых на форуме нашими читателями. Если вы являетесь правообладателем какого-либо представленного материала и не желаете чтобы ссылка на него находилась в нашем каталоге, свяжитесь с нами и мы незамедлительно удалим её. Файлы для обмена на трекере предоставлены пользователями сайта, и администрация не несёт ответственности за их содержание. Просьба не заливать файлы, защищенные авторскими правами, а также файлы нелегального содержания!