Начать новую тему Ответить на тему  [ 1 сообщение ] 
Статистика раздачи
Размер: 2.18 ГБ | Добавлен: 13 ноя 2017, 20:44 | Скачали: 344
Сидеров: 11  [0 байт/сек]    Личеров: 14  [0 байт/сек]
Автор

СообщениеДобавлено: 13 ноя 2017, 20:44 

Не в сети
Супераплоадер
Супераплоадер
Аватара пользователя
Раздал: 1011.16 ГБ
Скачал: 272.47 ГБ
Ратио: 3.711


Зарегистрирован: 10 окт 2013, 18:02
Сообщения: 3041
Год производства: 2017
Название ролика: The Squirt Princess
Жанр: All Sex,Facial,Squirting,Pussy Licking,Fingering Pussy
В ролях: Zoey Monroe ,Justin Hunt
Продолжительность: 34 min 48 s
Подсайт и сайт: Fucking Awesome

Zoey Monore wants nothing more than to be The Squirt Princess and lucky for her The Fantasy Factory grants her wish with Justin Hunt. After Zoey types in her fantasy, Justin appears and gets straight to work. Starting with his fingers he works her up to her first time squirting and ends up having her gushing all over the bed.

Тип видео : HD
Формат видео : MP4
Video
ID : 1
Format : AVC
Format/Info : Advanced Video Codec
Format profile : [email protected]
Format settings : CABAC / 3 Ref Frames
Format settings, CABAC : Yes
Format settings, RefFrames : 3 frames
Codec ID : avc1
Codec ID/Info : Advanced Video Coding
Duration : 34 min 48 s
Bit rate : 8 912 kb/s
Width : 3 840 pixels
Height : 2 160 pixels
Display aspect ratio : 16:9
Frame rate mode : Constant
Frame rate : 23.976 (24000/1001) FPS
Color space : YUV
Chroma subsampling : 4:2:0
Bit depth : 8 bits
Scan type : Progressive
Bits/(Pixel*Frame) : 0.045
Stream size : 2.17 GiB (99%)
Writing library : Zencoder Video Encoding System
Color range : Limited
Color primaries : BT.709
Transfer characteristics : BT.709
Matrix coefficients : BT.709

Audio
ID : 2
Format : AAC
Format/Info : Advanced Audio Codec
Format profile : LC
Codec ID : mp4a-40-2
Duration : 34 min 48 s
Bit rate mode : Constant
Bit rate : 66.2 kb/s
Channel(s) : 2 channels
Channel positions : Front: L R
Sampling rate : 48.0 kHz
Frame rate : 46.875 FPS (1024 SPF)
Compression mode : Lossy
Stream size : 16.5 MiB (1%)
Default : Yes

Скриншоты:

Как тут качатьЗаказ порнушки!
Добавлен:  13 ноя 2017, 20:44

Скачать торрент Магнет ссылка
Скачать торрент

Размер: 2.18 ГБ
Скачали: 344
Статус Проверен
 
Последний сидер: 10 дней 9 часов 52 минуты 47 секунд назад
Приватный: Нет (DHT включён)
Нет сидов? Пиши сюдаКак скачать отдельный файл из раздачи?


Вернуться к началу
 Профиль  
 
Показать сообщения за:  Поле сортировки  
Начать новую тему Ответить на тему  [ 1 сообщение ] 


Кто сейчас на конференции

Зарегистрированные пользователи: Google [Bot], Yandex [Bot]


Вы не можете начинать темы
Вы не можете отвечать на сообщения
Вы не можете редактировать свои сообщения
Вы не можете удалять свои сообщения
Вы не можете добавлять вложения

Найти:
Перейти: