Начать новую тему Ответить на тему  [ 1 сообщение ] 
Статистика раздачи
Размер: 8.02 ГБ | Добавлен: 13 ноя 2017, 21:19 | Скачали: 5243
Сидеров: 121  [0 байт/сек]    Личеров: 105  [0 байт/сек]

Автор

СообщениеДобавлено: 13 ноя 2017, 21:19 

Не в сети
Супераплоадер
Супераплоадер
Аватара пользователя
Раздал: 650.8 ГБ
Скачал: 186.78 ГБ
Ратио: 3.484


Зарегистрирован: 10 окт 2013, 18:02
Сообщения: 1340


Имя актрисы: Karlee Grey
Название ролика: Size Queen Brazilian Wife
Подсайт и сайт: BlackedRaw.com

Год производства: 2017 г.
Жанр: Reverse Cowgirl, Brunette, Squirting, Blowjob, Doggystyle, Riding Cowgirl, Facial, Deepthroat, Ass Licking, Big Tits, Interracial
Продолжительность: 00:45:38

Описание:
Karlee is on a break from her boyfriend and she can finally be completely fulfilled.

Тип видео : HD
Формат видео : MP4

Video
ID : 1
Format : AVC
Format/Info : Advanced Video Codec
Format profile : High@L5.2
Format settings : CABAC / 4 Ref Frames
Format settings, CABAC : Yes
Format settings, RefFrames : 4 frames
Codec ID : avc1
Codec ID/Info : Advanced Video Coding
Duration : 45 min 37 s
Bit rate : 25.0 Mb/s
Width : 3 840 pixels
Height : 2 160 pixels
Display aspect ratio : 16:9
Frame rate mode : Constant
Frame rate : 23.976 (24000/1001) FPS
Color space : YUV
Chroma subsampling : 4:2:0
Bit depth : 8 bits
Scan type : Progressive
Bits/(Pixel*Frame) : 0.126
Stream size : 7.97 GiB (99%)
Writing library : Zencoder Video Encoding System
Color range : Limited
Color primaries : BT.709
Transfer characteristics : BT.709
Matrix coefficients : BT.709

Audio
ID : 2
Format : AAC
Format/Info : Advanced Audio Codec
Format profile : LC
Codec ID : mp4a-40-2
Duration : 45 min 37 s
Bit rate mode : Constant
Bit rate : 164 kb/s
Channel(s) : 2 channels
Channel positions : Front: L R
Sampling rate : 48.0 kHz
Frame rate : 46.875 FPS (1024 SPF)
Compression mode : Lossy
Stream size : 53.4 MiB (1%)
Default : Yes
Alternate group : 1

Скриншоты:


Как тут качатьЗаказ порнушки!
Добавлен:  13 ноя 2017, 21:19

Скачать торрент Смотреть онлайн
Скачать торрент

Размер: 8.02 ГБ
Скачали: 5243
Статус Проверен
 

Последний сидер: 5 часов 26 минут 13 секунд назад
Приватный: Нет (DHT включён)
Нет сидов? Пиши сюдаКак скачать отдельный файл из раздачи?


Вернуться к началу
 Профиль  
 
Показать сообщения за:  Поле сортировки  
Начать новую тему Ответить на тему  [ 1 сообщение ] 


Кто сейчас на конференции

Зарегистрированные пользователи: Armulfolume, Google [Bot], Yandex [Bot]


Вы не можете начинать темы
Вы не можете отвечать на сообщения
Вы не можете редактировать свои сообщения
Вы не можете удалять свои сообщения
Вы не можете добавлять вложения

Найти:
Перейти:  

Ресурс не предоставляет электронные версии произведений, а занимается лишь коллекционированием и каталогизацией ссылок, присылаемых и публикуемых на форуме нашими читателями. Если вы являетесь правообладателем какого-либо представленного материала и не желаете чтобы ссылка на него находилась в нашем каталоге, свяжитесь с нами и мы незамедлительно удалим её. Файлы для обмена на трекере предоставлены пользователями сайта, и администрация не несёт ответственности за их содержание. Просьба не заливать файлы, защищенные авторскими правами, а также файлы нелегального содержания!