Начать новую тему Ответить на тему  [ 1 сообщение ] 
Статистика раздачи
Размер: 1.09 ГБ | Добавлен: 14 ноя 2017, 14:45 | Скачали: 2516
Сидеров: 88  [38.98 КБ/сек]    Личеров: 42  [54.97 КБ/сек]

Автор

СообщениеДобавлено: 14 ноя 2017, 14:45 

В сети
Супераплоадер
Супераплоадер
Аватара пользователя
Раздал: 650.8 ГБ
Скачал: 186.65 ГБ
Ратио: 3.487


Зарегистрирован: 10 окт 2013, 18:02
Сообщения: 1329


Год производства: 2017
Название ролика: Jackson Knight FUCKS Sarah Sunday
Жанр: All Sex,Amateur, Bisexual
В ролях: Jackson Knight And Sarah Sunday
Продолжительность:18 min 58 s
Подсайт и сайт:Hot Guys Fuck

Jackson Knight is your typical horn ball who just has pussy on his mind 24/7. Sarah Sunday loves to get plowed so this was an ideal pairing we had to put together. Jackson almost forgets where he is as soon as an attractive girl walks through the door. He immediately fell for Sarah as soon as he saw her "sexy ass tattoos." He did he best to make her orgasm and crushed her from behind. I think this pussy Jackson will remember for ever.

Video Information
File type........: MP4
Duration.........: 18min58sec
Resolution.......: 1920x1080
Bitrate..........: 8042 kb/s
Frame rate.......: 29.970 fps



Тип видео : HD
Формат видео : MP4
Video
ID : 1
Format : AVC
Format/Info : Advanced Video Codec
Format profile : High@L4.2
Format settings : CABAC / 4 Ref Frames
Format settings, CABAC : Yes
Format settings, RefFrames : 4 frames
Codec ID : avc1
Codec ID/Info : Advanced Video Coding
Duration : 18 min 58 s
Bit rate mode : Variable
Bit rate : 8 042 kb/s
Maximum bit rate : 12.0 Mb/s
Width : 1 920 pixels
Height : 1 080 pixels
Display aspect ratio : 16:9
Frame rate mode : Constant
Frame rate : 29.970 (30000/1001) FPS
Standard : NTSC
Color space : YUV
Chroma subsampling : 4:2:0
Bit depth : 8 bits
Scan type : Progressive
Bits/(Pixel*Frame) : 0.129
Stream size : 1.07 GiB (98%)
Language : English
Encoded date : UTC 2017-09-06 06:16:57
Tagged date : UTC 2017-09-06 06:16:57
Color range : Limited
Color primaries : BT.709
Transfer characteristics : BT.709
Matrix coefficients : BT.709

Audio
ID : 2
Format : AAC
Format/Info : Advanced Audio Codec
Format profile : LC
Codec ID : mp4a-40-2
Duration : 18 min 58 s
Source duration : 18 min 58 s
Bit rate mode : Variable
Bit rate : 192 kb/s
Maximum bit rate : 292 kb/s
Channel(s) : 2 channels
Channel positions : Front: L R
Sampling rate : 48.0 kHz
Frame rate : 46.875 FPS (1024 SPF)
Compression mode : Lossy
Stream size : 25.7 MiB (2%)
Source stream size : 25.7 MiB (2%)
Language : English
Encoded date : UTC 2017-09-06 06:16:57
Tagged date : UTC 2017-09-06 06:16:57

Скриншоты:


Как тут качатьЗаказ порнушки!
Добавлен:  14 ноя 2017, 14:45

Скачать торрент Смотреть онлайн
Скачать торрент

Размер: 1.09 ГБ
Скачали: 2516
Статус Проверен
 

Последний сидер: 2 минуты 4 секунды назад
Приватный: Нет (DHT включён)
Нет сидов? Пиши сюдаКак скачать отдельный файл из раздачи?


Вернуться к началу
 Профиль  
 
Показать сообщения за:  Поле сортировки  
Начать новую тему Ответить на тему  [ 1 сообщение ] 


Кто сейчас на конференции

Зарегистрированные пользователи: Google [Bot], sergej10, Yandex [Bot], zeleko


Вы не можете начинать темы
Вы не можете отвечать на сообщения
Вы не можете редактировать свои сообщения
Вы не можете удалять свои сообщения
Вы не можете добавлять вложения

Найти:
Перейти:  

Ресурс не предоставляет электронные версии произведений, а занимается лишь коллекционированием и каталогизацией ссылок, присылаемых и публикуемых на форуме нашими читателями. Если вы являетесь правообладателем какого-либо представленного материала и не желаете чтобы ссылка на него находилась в нашем каталоге, свяжитесь с нами и мы незамедлительно удалим её. Файлы для обмена на трекере предоставлены пользователями сайта, и администрация не несёт ответственности за их содержание. Просьба не заливать файлы, защищенные авторскими правами, а также файлы нелегального содержания!