Начать новую тему Ответить на тему  [ 1 сообщение ] 
Статистика раздачи
Размер: 1.05 ГБ | Добавлен: 14 ноя 2017, 15:03 | Скачали: 2852
Сидеров: 134  [0 байт/сек]    Личеров: 76  [0 байт/сек]

Автор

СообщениеДобавлено: 14 ноя 2017, 15:03 

В сети
Супераплоадер
Супераплоадер
Аватара пользователя
Раздал: 650.8 ГБ
Скачал: 186.65 ГБ
Ратио: 3.487


Зарегистрирован: 10 окт 2013, 18:02
Сообщения: 1330


Год производства: 2017
Название ролика: Derek Jones Takes Over Tori Blue
Жанр: All Sex,Amateur, Bisexual
В ролях: Derek Jones, Tori Blue
Продолжительность: 18min16sec
Подсайт и сайт: Hot Guys Fuck

Two of our best fuckers finally met head to head. Tori Blue had been begging us for some dirty Derek Jones cock and balls. This video got started immediately after the mandatory consensual video. They didn't waste time fucking and after some hot foreplay... they were off to the actual set. Derek Jones put it into Tori's tight little pussy and went to pound town. When it was time to cum, Derek struggled to get the condom off which was kind of hilarious. That didn't stop Tori from sucking whatever nut was left out of Derek's cock. Intense Pressure!

Video Information
File type........: MP4
Duration.........: 18min16sec
Resolution.......: 1920x1080
Bitrate..........: 8022 kb/s
Frame rate.......: 59.940 fps


Тип видео : HD
Формат видео : MP4
Video
ID : 1
Format : AVC
Format/Info : Advanced Video Codec
Format profile : High@L4.2
Format settings : CABAC / 4 Ref Frames
Format settings, CABAC : Yes
Format settings, RefFrames : 4 frames
Codec ID : avc1
Codec ID/Info : Advanced Video Coding
Duration : 18 min 16 s
Bit rate mode : Variable
Bit rate : 8 022 kb/s
Maximum bit rate : 12.0 Mb/s
Width : 1 920 pixels
Height : 1 080 pixels
Display aspect ratio : 16:9
Frame rate mode : Constant
Frame rate : 59.940 (60000/1001) FPS
Standard : NTSC
Color space : YUV
Chroma subsampling : 4:2:0
Bit depth : 8 bits
Scan type : Progressive
Bits/(Pixel*Frame) : 0.065
Stream size : 1.02 GiB (98%)
Language : English
Encoded date : UTC 2017-09-06 22:46:11
Tagged date : UTC 2017-09-06 22:46:11
Color range : Limited
Color primaries : BT.709
Transfer characteristics : BT.709
Matrix coefficients : BT.709

Audio
ID : 2
Format : AAC
Format/Info : Advanced Audio Codec
Format profile : LC
Codec ID : mp4a-40-2
Duration : 18 min 16 s
Source duration : 18 min 16 s
Bit rate mode : Variable
Bit rate : 192 kb/s
Maximum bit rate : 288 kb/s
Channel(s) : 2 channels
Channel positions : Front: L R
Sampling rate : 48.0 kHz
Frame rate : 46.875 FPS (1024 SPF)
Compression mode : Lossy
Stream size : 24.7 MiB (2%)
Source stream size : 24.7 MiB (2%)
Language : English
Encoded date : UTC 2017-09-06 22:46:11
Tagged date : UTC 2017-09-06 22:46:11

Скриншоты:


Как тут качатьЗаказ порнушки!
Добавлен:  14 ноя 2017, 15:03

Скачать торрент Смотреть онлайн
Скачать торрент

Размер: 1.05 ГБ
Скачали: 2852
Статус Проверен
 

Последний сидер: 14 часов 38 минут 27 секунд назад
Приватный: Нет (DHT включён)
Нет сидов? Пиши сюдаКак скачать отдельный файл из раздачи?


Вернуться к началу
 Профиль  
 
Показать сообщения за:  Поле сортировки  
Начать новую тему Ответить на тему  [ 1 сообщение ] 


Кто сейчас на конференции

Зарегистрированные пользователи: Google [Bot], sergej10, Yandex [Bot], zeleko


Вы не можете начинать темы
Вы не можете отвечать на сообщения
Вы не можете редактировать свои сообщения
Вы не можете удалять свои сообщения
Вы не можете добавлять вложения

Найти:
Перейти:  

Ресурс не предоставляет электронные версии произведений, а занимается лишь коллекционированием и каталогизацией ссылок, присылаемых и публикуемых на форуме нашими читателями. Если вы являетесь правообладателем какого-либо представленного материала и не желаете чтобы ссылка на него находилась в нашем каталоге, свяжитесь с нами и мы незамедлительно удалим её. Файлы для обмена на трекере предоставлены пользователями сайта, и администрация не несёт ответственности за их содержание. Просьба не заливать файлы, защищенные авторскими правами, а также файлы нелегального содержания!