Начать новую тему Ответить на тему  [ 1 сообщение ] 
Статистика раздачи
Размер: 1.63 ГБ | Добавлен: 14 ноя 2017, 15:13 | Скачали: 2245
Сидеров: 16  [489 байт/сек]    Личеров: 12  [8.22 КБ/сек]

Автор

СообщениеДобавлено: 14 ноя 2017, 15:13 

Не в сети
Супераплоадер
Супераплоадер
Аватара пользователя
Раздал: 650.8 ГБ
Скачал: 186.78 ГБ
Ратио: 3.484


Зарегистрирован: 10 окт 2013, 18:02
Сообщения: 1343


Год производства: 2017
Название ролика: Dorian James FUCKS Tori Blue
Жанр: All Sex ,Amateur, Bisexual
В ролях: Dorian James, Tori Blue
Продолжительность: 27min21sec
Подсайт и сайт: Hot Guys Fuck

Dorian James flew all the way from Canada to fuck Tori's tight ting. He'd never been with an American girl but heard these girls were the best. Lucky for him, Tori Blue is one of the better fucks you'll ever experience. Dorian James was rock hard the entire time and loved smothering this tiny little American girl. She couldn't wait to taste authentic maple syrup... and she did, with no complaints.

Video Information
File type........: MP4
Duration.........: 27min21sec
Resolution.......: 1920x1080
Bitrate..........: 8021 kb/s
Frame rate.......: 59.940 fps


Тип видео : HD
Формат видео : MP4
Video
ID : 1
Format : AVC
Format/Info : Advanced Video Codec
Format profile : High@L4.2
Format settings : CABAC / 4 Ref Frames
Format settings, CABAC : Yes
Format settings, RefFrames : 4 frames
Format settings, GOP : M=3, N=59
Codec ID : avc1
Codec ID/Info : Advanced Video Coding
Duration : 27 min 21 s
Source duration : 27 min 21 s
Bit rate mode : Variable
Bit rate : 8 021 kb/s
Maximum bit rate : 12.0 Mb/s
Width : 1 920 pixels
Height : 1 080 pixels
Display aspect ratio : 16:9
Frame rate mode : Constant
Frame rate : 59.940 (60000/1001) FPS
Standard : NTSC
Color space : YUV
Chroma subsampling : 4:2:0
Bit depth : 8 bits
Scan type : Progressive
Bits/(Pixel*Frame) : 0.065
Stream size : 1.53 GiB (98%)
Source stream size : 1.53 GiB (98%)
Language : English
Encoded date : UTC 2017-09-09 03:23:34
Tagged date : UTC 2017-09-09 03:23:34
Color range : Limited
Color primaries : BT.709
Transfer characteristics : BT.709
Matrix coefficients : BT.709

Audio
ID : 2
Format : AAC
Format/Info : Advanced Audio Codec
Format profile : LC
Codec ID : mp4a-40-2
Duration : 27 min 21 s
Source duration : 27 min 21 s
Bit rate mode : Variable
Bit rate : 192 kb/s
Maximum bit rate : 294 kb/s
Channel(s) : 2 channels
Channel positions : Front: L R
Sampling rate : 48.0 kHz
Frame rate : 46.875 FPS (1024 SPF)
Compression mode : Lossy
Stream size : 37.1 MiB (2%)
Source stream size : 37.1 MiB (2%)
Language : English
Encoded date : UTC 2017-09-09 03:23:34
Tagged date : UTC 2017-09-09 03:23:34

Скриншоты:


Как тут качатьЗаказ порнушки!
Добавлен:  14 ноя 2017, 15:13

Скачать торрент Смотреть онлайн
Скачать торрент

Размер: 1.63 ГБ
Скачали: 2245
Статус Проверен
 

Последний сидер: 22 минуты 41 секунду назад
Приватный: Нет (DHT включён)
Нет сидов? Пиши сюдаКак скачать отдельный файл из раздачи?


Вернуться к началу
 Профиль  
 
Показать сообщения за:  Поле сортировки  
Начать новую тему Ответить на тему  [ 1 сообщение ] 


Кто сейчас на конференции

Зарегистрированные пользователи: Google [Bot], Yahoo [Bot], Yandex [Bot]


Вы не можете начинать темы
Вы не можете отвечать на сообщения
Вы не можете редактировать свои сообщения
Вы не можете удалять свои сообщения
Вы не можете добавлять вложения

Найти:
Перейти:  

Ресурс не предоставляет электронные версии произведений, а занимается лишь коллекционированием и каталогизацией ссылок, присылаемых и публикуемых на форуме нашими читателями. Если вы являетесь правообладателем какого-либо представленного материала и не желаете чтобы ссылка на него находилась в нашем каталоге, свяжитесь с нами и мы незамедлительно удалим её. Файлы для обмена на трекере предоставлены пользователями сайта, и администрация не несёт ответственности за их содержание. Просьба не заливать файлы, защищенные авторскими правами, а также файлы нелегального содержания!