Начать новую тему Ответить на тему  [ 1 сообщение ] 
Статистика раздачи
Размер: 1.54 ГБ | Добавлен: 14 ноя 2017, 15:24 | Скачали: 3929
Сидеров: 19  [0 байт/сек]    Личеров: 19  [69.19 КБ/сек]

Автор

СообщениеДобавлено: 14 ноя 2017, 15:24 

Не в сети
Супераплоадер
Супераплоадер
Аватара пользователя
Раздал: 650.8 ГБ
Скачал: 186.78 ГБ
Ратио: 3.484


Зарегистрирован: 10 окт 2013, 18:02
Сообщения: 1335


Год производства: 2017
Название ролика: PJ Major FUCKS Rachel Ford
Жанр: All Sex,Amateur, Bisexual
В ролях: Pj Major, Rachel Ford
Продолжительность: 26min49sec
Подсайт и сайт: Hot Guys Fuck

Yes! Rachel Ford got her much needed orgasm this week and has PJ Major's thick uncut cock to thank. Although PJ was first very nervous, Rachel's cool personality really made him feel comfortable. I think she was eyeing for this orgasm and wanted to start things off right. Had to shoot the scene with next to no light because the public could actually see clearly into this set. We almost got caught a few times with a few close calls. Definitely a passionate scene with two models who were really digging each other.

Video Information
File type........: MP4
Duration.........: 26min49sec
Resolution.......: 1920x1080
Bitrate..........: 8048 kb/s
Frame rate.......: 59.940 fps


Тип видео : HD
Формат видео : MP4
Video
ID : 1
Format : AVC
Format/Info : Advanced Video Codec
Format profile : High@L4.2
Format settings : CABAC / 4 Ref Frames
Format settings, CABAC : Yes
Format settings, RefFrames : 4 frames
Codec ID : avc1
Codec ID/Info : Advanced Video Coding
Duration : 26 min 49 s
Bit rate mode : Variable
Bit rate : 8 048 kb/s
Maximum bit rate : 12.0 Mb/s
Width : 1 920 pixels
Height : 1 080 pixels
Display aspect ratio : 16:9
Frame rate mode : Constant
Frame rate : 59.940 (60000/1001) FPS
Standard : NTSC
Color space : YUV
Chroma subsampling : 4:2:0
Bit depth : 8 bits
Scan type : Progressive
Bits/(Pixel*Frame) : 0.065
Stream size : 1.51 GiB (98%)
Language : English
Encoded date : UTC 2017-09-27 03:45:33
Tagged date : UTC 2017-09-27 03:45:33
Color range : Limited
Color primaries : BT.709
Transfer characteristics : BT.709
Matrix coefficients : BT.709

Audio
ID : 2
Format : AAC
Format/Info : Advanced Audio Codec
Format profile : LC
Codec ID : mp4a-40-2
Duration : 26 min 49 s
Source duration : 26 min 49 s
Bit rate mode : Variable
Bit rate : 192 kb/s
Maximum bit rate : 274 kb/s
Channel(s) : 2 channels
Channel positions : Front: L R
Sampling rate : 48.0 kHz
Frame rate : 46.875 FPS (1024 SPF)
Compression mode : Lossy
Stream size : 36.3 MiB (2%)
Source stream size : 36.3 MiB (2%)
Language : English
Encoded date : UTC 2017-09-27 03:45:33
Tagged date : UTC 2017-09-27 03:45:33

Скриншоты:


Как тут качатьЗаказ порнушки!
Добавлен:  14 ноя 2017, 15:24

Скачать торрент Смотреть онлайн
Скачать торрент

Размер: 1.54 ГБ
Скачали: 3929
Статус Проверен
 

Последний сидер: 16 часов 48 минут 9 секунд назад
Приватный: Нет (DHT включён)
Нет сидов? Пиши сюдаКак скачать отдельный файл из раздачи?


Вернуться к началу
 Профиль  
 
Показать сообщения за:  Поле сортировки  
Начать новую тему Ответить на тему  [ 1 сообщение ] 


Кто сейчас на конференции

Зарегистрированные пользователи: Google [Bot], Sam, Yandex [Bot]


Вы не можете начинать темы
Вы не можете отвечать на сообщения
Вы не можете редактировать свои сообщения
Вы не можете удалять свои сообщения
Вы не можете добавлять вложения

Найти:
Перейти:  

Ресурс не предоставляет электронные версии произведений, а занимается лишь коллекционированием и каталогизацией ссылок, присылаемых и публикуемых на форуме нашими читателями. Если вы являетесь правообладателем какого-либо представленного материала и не желаете чтобы ссылка на него находилась в нашем каталоге, свяжитесь с нами и мы незамедлительно удалим её. Файлы для обмена на трекере предоставлены пользователями сайта, и администрация не несёт ответственности за их содержание. Просьба не заливать файлы, защищенные авторскими правами, а также файлы нелегального содержания!