Начать новую тему Ответить на тему  [ 1 сообщение ] 
Статистика раздачи
Размер: 1.46 ГБ | Добавлен: 14 ноя 2017, 15:41 | Скачали: 4958
Сидеров: 52  [0 байт/сек]    Личеров: 20  [0 байт/сек]

Автор

СообщениеДобавлено: 14 ноя 2017, 15:41 

Не в сети
Супераплоадер
Супераплоадер
Аватара пользователя
Раздал: 650.8 ГБ
Скачал: 186.65 ГБ
Ратио: 3.487


Зарегистрирован: 10 окт 2013, 18:02
Сообщения: 1332


Год производства: 2017
Название ролика: Toe Licking Teen Masturbates
Жанр: Fetish , Big Butts , Small Tits
В ролях: Lucy Heart
Продолжительность: 25 min 30 s
Подсайт и сайт:Hot Legs And Feet

Toe Licking Teen Masturbates

Wanna see a toe licking teen masturbate on her bed? Come on in, sit back, relax, and grab your boner for another sizzling hot wank on today’s DDF Network Hot Legs & Feet bandwagon! Our teenage porn star Lucy Heart can’t wait to play with her pink high heels, sexy toes and endless legs. Her soft hands stroke along her tight thighs as she gets ready for a mind-blowing masturbation solo adventure!

Watch her such that vibrator and look a little closer as she slides that sex toy deep into her wet pussy. Lucy Heart enjoys riding that dong and plays with her tootsies. She takes off her high heels and bra, reveals her lovely natural tits to our Full HD cameras, and bangs her twat on that bed as if there was no tomorrow! Today’s premium glamour porn by DDF Network is packed with crystal clear close-up shots of that pink pussy and our lenses follow her sexy hands between her thighs where she gently enters her cunny for some intense fingering. Her fishnet tights are ripped apart in a moment of pure pleasure, and as soon as Lucy Heart climaxes, it’s time for you to release some sperm all over yourself while that blonde babe enjoys an orgasmic aftermath in her bedroom!

Тип видео : HD
Формат видео : MP4
Video
ID : 1
Format : AVC
Format/Info : Advanced Video Codec
Format profile : High@L4.2
Format settings : CABAC / 3 Ref Frames
Format settings, CABAC : Yes
Format settings, RefFrames : 3 frames
Codec ID : avc1
Codec ID/Info : Advanced Video Coding
Duration : 25 min 30 s
Bit rate mode : Variable
Bit rate : 8 000 kb/s
Width : 1 920 pixels
Height : 1 080 pixels
Display aspect ratio : 16:9
Frame rate mode : Constant
Frame rate : 59.940 (60000/1001) FPS
Standard : NTSC
Color space : YUV
Chroma subsampling : 4:2:0
Bit depth : 8 bits
Scan type : Progressive
Bits/(Pixel*Frame) : 0.064
Stream size : 1.42 GiB (98%)
Color range : Limited
Color primaries : BT.709
Transfer characteristics : BT.709
Matrix coefficients : BT.709

Audio
ID : 2
Format : AAC
Format/Info : Advanced Audio Codec
Format profile : LC
Codec ID : mp4a-40-2
Duration : 25 min 30 s
Duration_LastFrame : -5 ms
Bit rate mode : Constant
Bit rate : 192 kb/s
Channel(s) : 2 channels
Channel positions : Front: L R
Sampling rate : 48.0 kHz
Frame rate : 46.875 FPS (1024 SPF)
Compression mode : Lossy
Stream size : 34.6 MiB (2%)
Default : Yes
Alternate group : 1

Скриншоты:


Как тут качатьЗаказ порнушки!
Добавлен:  14 ноя 2017, 15:41

Скачать торрент Смотреть онлайн
Скачать торрент

Размер: 1.46 ГБ
Скачали: 4958
Статус Проверен
 

Последний сидер: 1 час 34 минуты 10 секунд назад
Приватный: Нет (DHT включён)
Нет сидов? Пиши сюдаКак скачать отдельный файл из раздачи?


Вернуться к началу
 Профиль  
 
Показать сообщения за:  Поле сортировки  
Начать новую тему Ответить на тему  [ 1 сообщение ] 


Кто сейчас на конференции

Зарегистрированные пользователи: feunred, Google [Bot], Yahoo [Bot], Yandex [Bot]


Вы не можете начинать темы
Вы не можете отвечать на сообщения
Вы не можете редактировать свои сообщения
Вы не можете удалять свои сообщения
Вы не можете добавлять вложения

Найти:
Перейти:  

Ресурс не предоставляет электронные версии произведений, а занимается лишь коллекционированием и каталогизацией ссылок, присылаемых и публикуемых на форуме нашими читателями. Если вы являетесь правообладателем какого-либо представленного материала и не желаете чтобы ссылка на него находилась в нашем каталоге, свяжитесь с нами и мы незамедлительно удалим её. Файлы для обмена на трекере предоставлены пользователями сайта, и администрация не несёт ответственности за их содержание. Просьба не заливать файлы, защищенные авторскими правами, а также файлы нелегального содержания!