Начать новую тему Ответить на тему  [ 1 сообщение ] 
Статистика раздачи
Размер: 1.05 ГБ | Добавлен: 15 ноя 2017, 03:46 | Скачали: 3123
Сидеров: 29  [0 байт/сек]    Личеров: 17  [0 байт/сек]
Автор

СообщениеДобавлено: 15 ноя 2017, 03:46 

Не в сети
Супераплоадер
Супераплоадер
Аватара пользователя
Раздал: 1011.16 ГБ
Скачал: 272.47 ГБ
Ратио: 3.711


Зарегистрирован: 10 окт 2013, 18:02
Сообщения: 3045
Год производства: 2017
Название ролика: Wendy Moon Double Cumming Tongue Love
Жанр: All Sex
В ролях: Wendy Moon
Продолжительность: 18 min 33 s
Подсайт и сайт: Melone Challenge

35y old Marcel has a specialty – he’s got a long tongue and knows how to use it. Wendy is very happy with that as his tongue is swirling inside her wet cunt, making her horny as hell. But Marcel isn’t just there to eat her out; he has to prove himself as a good fucker. That is the challenge. All the playing around make his dick hard and he fucks Wendy like a pro. After shooting his load though, there still seems to be some life in him and Wendy hops right back on his hard dick for a second round! Definitely a thumbs up situation.

Тип видео : HD
Формат видео : MP4
Video
ID : 1
Format : AVC
Format/Info : Advanced Video Codec
Format profile : [email protected]
Format settings : 2 Ref Frames
Format settings, CABAC : No
Format settings, RefFrames : 2 frames
Format settings, GOP : M=1, N=75
Codec ID : avc1
Codec ID/Info : Advanced Video Coding
Duration : 18 min 33 s
Bit rate : 7 957 kb/s
Width : 1 920 pixels
Height : 1 080 pixels
Display aspect ratio : 16:9
Frame rate mode : Constant
Frame rate : 25.000 FPS
Standard : PAL
Color space : YUV
Chroma subsampling : 4:2:0
Bit depth : 8 bits
Scan type : Progressive
Bits/(Pixel*Frame) : 0.153
Stream size : 1.03 GiB (98%)
Color range : Limited
Color primaries : BT.709
Transfer characteristics : BT.709
Matrix coefficients : BT.709

Audio
ID : 2
Format : AAC
Format/Info : Advanced Audio Codec
Format profile : LC
Codec ID : mp4a-40-2
Duration : 18 min 33 s
Duration_LastFrame : -8 ms
Bit rate mode : Constant
Bit rate : 157 kb/s
Channel(s) : 2 channels
Channel positions : Front: L R
Sampling rate : 48.0 kHz
Frame rate : 46.875 FPS (1024 SPF)
Compression mode : Lossy
Stream size : 20.9 MiB (2%)
Default : Yes
Alternate group : 1



Скриншоты:

Как тут качатьЗаказ порнушки!
Добавлен:  15 ноя 2017, 03:46

Скачать торрент Магнет ссылка
Скачать торрент

Размер: 1.05 ГБ
Скачали: 3123
Статус Проверен
 
Последний сидер: 1 день 10 часов 29 минут 8 секунд назад
Приватный: Нет (DHT включён)
Нет сидов? Пиши сюдаКак скачать отдельный файл из раздачи?


Вернуться к началу
 Профиль  
 
Показать сообщения за:  Поле сортировки  
Начать новую тему Ответить на тему  [ 1 сообщение ] 


Кто сейчас на конференции

Зарегистрированные пользователи: Google [Bot], Yandex [Bot]


Вы не можете начинать темы
Вы не можете отвечать на сообщения
Вы не можете редактировать свои сообщения
Вы не можете удалять свои сообщения
Вы не можете добавлять вложения

Найти:
Перейти: