Начать новую тему Ответить на тему  [ 1 сообщение ] 
Статистика раздачи
Размер: 1.42 ГБ | Добавлен: 15 ноя 2017, 04:01 | Скачали: 43
Сидеров: 17  [3.6 КБ/сек]    Личеров: 16  [3.41 КБ/сек]

Автор

СообщениеДобавлено: 15 ноя 2017, 04:01 

В сети
Супераплоадер
Супераплоадер
Аватара пользователя
Раздал: 650.8 ГБ
Скачал: 186.78 ГБ
Ратио: 3.484


Зарегистрирован: 10 окт 2013, 18:02
Сообщения: 1345


Год производства: 2017
Название ролика: Wendy Moon Multiorgasmic Failure
Жанр: All Sex
В ролях: Wendy Moon
Продолжительность: 24mn 56s
Подсайт и сайт: Melone Challenge

Finaly a guy older than Wendy - not an experienced boy, at last! 3200 fucks sounded very nice, but Wendys first orgasm sounded even better! Shortly after, her pussy was ready for another pounding and she climaxed for second time! Sadly, our challenger was not so lucky and he was not able to shoot the load in time, so it had to be thumbs down. But the fucking was so good!

Тип видео : HD
Формат видео : MP4
Video
ID : 1
Format : AVC
Format/Info : Advanced Video Codec
Format profile : Main@L4.2
Format settings, CABAC : Yes
Format settings, ReFrames : 3 frames
Format settings, GOP : M=4, N=25
Codec ID : avc1
Codec ID/Info : Advanced Video Coding
Duration : 24mn 56s
Bit rate : 7 955 Kbps
Width : 1 920 pixels
Height : 1 080 pixels
Display aspect ratio : 16:9
Frame rate mode : Constant
Frame rate : 25.000 fps
Standard : PAL
Color space : YUV
Chroma subsampling : 4:2:0
Bit depth : 8 bits
Scan type : Progressive
Bits/(Pixel*Frame) : 0.153
Stream size : 1.39 GiB (98%)
Encoded date : UTC 1904-01-01 00:00:00
Tagged date : UTC 1904-01-01 00:00:00
Color range : Limited
Color primaries : BT.709
Transfer characteristics : BT.709
Matrix coefficients : BT.709

Audio
ID : 2
Format : AAC
Format/Info : Advanced Audio Codec
Format profile : LC
Codec ID : 40
Duration : 24mn 56s
Duration_LastFrame : -16ms
Bit rate mode : Constant
Bit rate : 192 Kbps
Channel(s) : 2 channels
Channel positions : Front: L R
Sampling rate : 48.0 KHz
Frame rate : 46.875 fps (1024 spf)
Compression mode : Lossy
Stream size : 33.8 MiB (2%)
Default : Yes
Alternate group : 1
Encoded date : UTC 1904-01-01 00:00:00
Tagged date : UTC 1904-01-01 00:00:00

Скриншоты:


Как тут качатьЗаказ порнушки!
Добавлен:  15 ноя 2017, 04:01

Скачать торрент Смотреть онлайн
Скачать торрент

Размер: 1.42 ГБ
Скачали: 43
Статус Проверен
 

Последний сидер: 9 минут 22 секунды назад
Приватный: Нет (DHT включён)
Нет сидов? Пиши сюдаКак скачать отдельный файл из раздачи?


Вернуться к началу
 Профиль  
 
Показать сообщения за:  Поле сортировки  
Начать новую тему Ответить на тему  [ 1 сообщение ] 


Кто сейчас на конференции

Зарегистрированные пользователи: Google [Bot], KonradK, nity, sergej10, Yahoo [Bot], Yandex [Bot]


Вы не можете начинать темы
Вы не можете отвечать на сообщения
Вы не можете редактировать свои сообщения
Вы не можете удалять свои сообщения
Вы не можете добавлять вложения

Найти:
Перейти:  

Ресурс не предоставляет электронные версии произведений, а занимается лишь коллекционированием и каталогизацией ссылок, присылаемых и публикуемых на форуме нашими читателями. Если вы являетесь правообладателем какого-либо представленного материала и не желаете чтобы ссылка на него находилась в нашем каталоге, свяжитесь с нами и мы незамедлительно удалим её. Файлы для обмена на трекере предоставлены пользователями сайта, и администрация не несёт ответственности за их содержание. Просьба не заливать файлы, защищенные авторскими правами, а также файлы нелегального содержания!