Начать новую тему Ответить на тему  [ 1 сообщение ] 
Статистика раздачи
Размер: 783.15 МБ | Добавлен: 15 ноя 2017, 04:15 | Скачали: 450
Сидеров: 6  [0 байт/сек]    Личеров: 12  [0 байт/сек]
Автор

СообщениеДобавлено: 15 ноя 2017, 04:15 

Не в сети
Супераплоадер
Супераплоадер
Аватара пользователя
Раздал: 1011.16 ГБ
Скачал: 272.47 ГБ
Ратио: 3.711


Зарегистрирован: 10 окт 2013, 18:02
Сообщения: 3045
Год производства: 2017
Название ролика: Wendy Moon Loves Bruise More Than Pussy
Жанр: All Sex
В ролях: Wendy Moon
Продолжительность: 13mn 29s
Подсайт и сайт: Melone Challenge

This challenge proves to be frustrating to Wendy, when her challenger has more interest in her bruises than in getting hard. So she has to play on that string, but jerking off doesn’t get her wet cunt satisfied so she’s trying to find some help with her colleagues. In the end, not even her hot mouth can make the cock hard enough for a good fuck, and the challenger leaves, unsuccessful.

Тип видео : HD
Формат видео : MP4
Video
ID : 1
Format : AVC
Format/Info : Advanced Video Codec
Format profile : [email protected]
Format settings, CABAC : Yes
Format settings, ReFrames : 3 frames
Format settings, GOP : M=4, N=25
Codec ID : avc1
Codec ID/Info : Advanced Video Coding
Duration : 13mn 29s
Bit rate : 7 922 Kbps
Width : 1 920 pixels
Height : 1 080 pixels
Display aspect ratio : 16:9
Frame rate mode : Constant
Frame rate : 25.000 fps
Standard : PAL
Color space : YUV
Chroma subsampling : 4:2:0
Bit depth : 8 bits
Scan type : Progressive
Bits/(Pixel*Frame) : 0.153
Stream size : 764 MiB (98%)
Encoded date : UTC 1904-01-01 00:00:00
Tagged date : UTC 1904-01-01 00:00:00
Color range : Limited
Color primaries : BT.709
Transfer characteristics : BT.709
Matrix coefficients : BT.709

Audio
ID : 2
Format : AAC
Format/Info : Advanced Audio Codec
Format profile : LC
Codec ID : 40
Duration : 13mn 29s
Duration_LastFrame : -8ms
Bit rate mode : Constant
Bit rate : 192 Kbps
Channel(s) : 2 channels
Channel positions : Front: L R
Sampling rate : 48.0 KHz
Frame rate : 46.875 fps (1024 spf)
Compression mode : Lossy
Stream size : 18.3 MiB (2%)
Default : Yes
Alternate group : 1
Encoded date : UTC 1904-01-01 00:00:00
Tagged date : UTC 1904-01-01 00:00:00

Скриншоты:

Как тут качатьЗаказ порнушки!
Добавлен:  15 ноя 2017, 04:15

Скачать торрент Магнет ссылка
Скачать торрент

Размер: 783.15 МБ
Скачали: 450
Статус Проверен
 
Последний сидер: 1 день 10 часов 29 минут 39 секунд назад
Приватный: Нет (DHT включён)
Нет сидов? Пиши сюдаКак скачать отдельный файл из раздачи?


Вернуться к началу
 Профиль  
 
Показать сообщения за:  Поле сортировки  
Начать новую тему Ответить на тему  [ 1 сообщение ] 


Кто сейчас на конференции

Зарегистрированные пользователи: Google [Bot], Yandex [Bot]


Вы не можете начинать темы
Вы не можете отвечать на сообщения
Вы не можете редактировать свои сообщения
Вы не можете удалять свои сообщения
Вы не можете добавлять вложения

Найти:
Перейти: