Начать новую тему Ответить на тему  [ 1 сообщение ] 
Статистика раздачи
Размер: 843.2 МБ | Добавлен: 15 ноя 2017, 04:21 | Скачали: 50
Сидеров: 5  [8.45 КБ/сек]    Личеров: 64  [0 байт/сек]

Автор

СообщениеДобавлено: 15 ноя 2017, 04:21 

В сети
Супераплоадер
Супераплоадер
Аватара пользователя
Раздал: 650.8 ГБ
Скачал: 186.78 ГБ
Ратио: 3.484


Зарегистрирован: 10 окт 2013, 18:02
Сообщения: 1345


Год производства: 2017
Название ролика: Wendy Moon Hockey Player Shoots Early
Жанр: All Sex
В ролях: Wendy Moon
Продолжительность: 14mn 31s
Подсайт и сайт: Melone Challenge

30y old hockey player with a wild past involving a bullet in a leg is already naked when Wendy comes in. This soft plushy bear likes to cuddle and Wendy has no problem with that, but her cunt is all wet and horny and she’d like something big and hard to fill it up. This challenger gets it up, but there’s not much action before he cums. Wendy decides to put his tongue to good use anyways and enjoys a bit of fingering and tongue lashing, but ultimately, even this challenger is a disappointment.

Тип видео : HD
Формат видео : MP4
Video
ID : 1
Format : AVC
Format/Info : Advanced Video Codec
Format profile : Main@L4.2
Format settings, CABAC : Yes
Format settings, ReFrames : 3 frames
Format settings, GOP : M=4, N=25
Codec ID : avc1
Codec ID/Info : Advanced Video Coding
Duration : 14mn 31s
Bit rate : 7 925 Kbps
Width : 1 920 pixels
Height : 1 080 pixels
Display aspect ratio : 16:9
Frame rate mode : Constant
Frame rate : 25.000 fps
Standard : PAL
Color space : YUV
Chroma subsampling : 4:2:0
Bit depth : 8 bits
Scan type : Progressive
Bits/(Pixel*Frame) : 0.153
Stream size : 823 MiB (98%)
Encoded date : UTC 1904-01-01 00:00:00
Tagged date : UTC 1904-01-01 00:00:00
Color range : Limited
Color primaries : BT.709
Transfer characteristics : BT.709
Matrix coefficients : BT.709

Audio
ID : 2
Format : AAC
Format/Info : Advanced Audio Codec
Format profile : LC
Codec ID : 40
Duration : 14mn 31s
Duration_LastFrame : -3ms
Bit rate mode : Constant
Bit rate : 192 Kbps
Channel(s) : 2 channels
Channel positions : Front: L R
Sampling rate : 48.0 KHz
Frame rate : 46.875 fps (1024 spf)
Compression mode : Lossy
Stream size : 19.7 MiB (2%)
Default : Yes
Alternate group : 1
Encoded date : UTC 1904-01-01 00:00:00
Tagged date : UTC 1904-01-01 00:00:00



Скриншоты:


Как тут качатьЗаказ порнушки!
Добавлен:  15 ноя 2017, 04:21

Скачать торрент Смотреть онлайн
Скачать торрент

Размер: 843.2 МБ
Скачали: 50
Статус Проверен
 

Последний сидер: 8 минут 15 секунд назад
Приватный: Нет (DHT включён)
Нет сидов? Пиши сюдаКак скачать отдельный файл из раздачи?


Вернуться к началу
 Профиль  
 
Показать сообщения за:  Поле сортировки  
Начать новую тему Ответить на тему  [ 1 сообщение ] 


Кто сейчас на конференции

Зарегистрированные пользователи: Google [Bot], nity, sergej10, Yandex [Bot]


Вы не можете начинать темы
Вы не можете отвечать на сообщения
Вы не можете редактировать свои сообщения
Вы не можете удалять свои сообщения
Вы не можете добавлять вложения

Найти:
Перейти:  

Ресурс не предоставляет электронные версии произведений, а занимается лишь коллекционированием и каталогизацией ссылок, присылаемых и публикуемых на форуме нашими читателями. Если вы являетесь правообладателем какого-либо представленного материала и не желаете чтобы ссылка на него находилась в нашем каталоге, свяжитесь с нами и мы незамедлительно удалим её. Файлы для обмена на трекере предоставлены пользователями сайта, и администрация не несёт ответственности за их содержание. Просьба не заливать файлы, защищенные авторскими правами, а также файлы нелегального содержания!