Начать новую тему Ответить на тему  [ 1 сообщение ] 
Статистика раздачи
Размер: 1001.02 МБ | Добавлен: 06 дек 2017, 08:27 | Скачали: 4199
Сидеров: 16  [0 байт/сек]    Личеров: 26  [0 байт/сек]

Автор

СообщениеДобавлено: 06 дек 2017, 08:27 

Не в сети
Супераплоадер
Супераплоадер
Аватара пользователя
Раздал: 653.37 ГБ
Скачал: 187.63 ГБ
Ратио: 3.482


Зарегистрирован: 10 окт 2013, 18:02
Сообщения: 1583


Год производства: 2017
Название ролика: Caught In the Act
Жанр: Solo,Masturbation
В ролях: Nathaly Cherie
Продолжительность: 17 min 5 s
Подсайт и сайт:1BY-DAY

It looks like super sexxxy porn actress Nathaly Cherie isn’t in the mood to be just like the girl-next-door and instead would rather be as naughty as she wants to be in this dick-hardening solo premium porn video shot in ultra-hot 4K for 1By-Day. The gorgeous blonde gets heated in the kitchen before getting caught in the act – by you!

Nathaly strolls in wearing a tight pink dress and high heels. She notices her perky 34C/75D breasts in a reflection and starts titty squeezing them. Nathaly gets so turned on that she just has to start rubbing her trimmed pussy through her lingerie. But once she realizes she’s being watched, the horny babe goes wild vibrator licking her toy while fingering her very wet pink.

She invites you to move to the stairs with her while she deep pussy fucks herself with her vibrator, making herself moan and orgasm. But she wants more and she wants you to follow her upstairs to watch!


Тип видео : HD
Формат видео : MP4
Video
ID : 1
Format : AVC
Format/Info : Advanced Video Codec
Format profile : High@L4
Format settings : CABAC / 3 Ref Frames
Format settings, CABAC : Yes
Format settings, RefFrames : 3 frames
Format settings, GOP : M=3, N=29
Codec ID : avc1
Codec ID/Info : Advanced Video Coding
Duration : 17 min 5 s
Bit rate mode : Variable
Bit rate : 8 000 kb/s
Width : 1 920 pixels
Height : 1 080 pixels
Display aspect ratio : 16:9
Frame rate mode : Constant
Frame rate : 29.970 (30000/1001) FPS
Standard : NTSC
Color space : YUV
Chroma subsampling : 4:2:0
Bit depth : 8 bits
Scan type : Progressive
Bits/(Pixel*Frame) : 0.129
Stream size : 977 MiB (98%)
Color range : Limited
Color primaries : BT.709
Transfer characteristics : BT.709
Matrix coefficients : BT.709

Audio
ID : 2
Format : AAC
Format/Info : Advanced Audio Codec
Format profile : LC
Codec ID : mp4a-40-2
Duration : 17 min 5 s
Duration_LastFrame : -8 ms
Bit rate mode : Constant
Bit rate : 192 kb/s
Channel(s) : 2 channels
Channel positions : Front: L R
Sampling rate : 48.0 kHz
Frame rate : 46.875 FPS (1024 SPF)
Compression mode : Lossy
Stream size : 23.1 MiB (2%)
Default : Yes
Alternate group : 1

Скриншоты:


Как тут качатьЗаказ порнушки!
Добавлен:  06 дек 2017, 08:27

Скачать торрент Смотреть онлайн
Скачать торрент

Размер: 1001.02 МБ
Скачали: 4199
Статус Проверен
 

Последний сидер: 1 день 12 часов 29 минут 14 секунд назад
Приватный: Нет (DHT включён)
Нет сидов? Пиши сюдаКак скачать отдельный файл из раздачи?


Вернуться к началу
 Профиль  
 
Показать сообщения за:  Поле сортировки  
Начать новую тему Ответить на тему  [ 1 сообщение ] 


Кто сейчас на конференции

Зарегистрированные пользователи: 432am, Google [Bot], Yandex [Bot]


Вы не можете начинать темы
Вы не можете отвечать на сообщения
Вы не можете редактировать свои сообщения
Вы не можете удалять свои сообщения
Вы не можете добавлять вложения

Найти:
Перейти:  

Ресурс не предоставляет электронные версии произведений, а занимается лишь коллекционированием и каталогизацией ссылок, присылаемых и публикуемых на форуме нашими читателями. Если вы являетесь правообладателем какого-либо представленного материала и не желаете чтобы ссылка на него находилась в нашем каталоге, свяжитесь с нами и мы незамедлительно удалим её. Файлы для обмена на трекере предоставлены пользователями сайта, и администрация не несёт ответственности за их содержание. Просьба не заливать файлы, защищенные авторскими правами, а также файлы нелегального содержания!