Начать новую тему Ответить на тему  [ 1 сообщение ] 
Статистика раздачи
Размер: 3.8 ГБ | Добавлен: 06 дек 2017, 08:17 | Скачали: 34
Сидеров: 13  [0 байт/сек]    Личеров: 42  [0 байт/сек]

Автор

СообщениеДобавлено: 06 дек 2017, 08:17 

Не в сети
Супераплоадер
Супераплоадер
Аватара пользователя
Раздал: 1007.12 ГБ
Скачал: 271.75 ГБ
Ратио: 3.706


Зарегистрирован: 10 окт 2013, 18:02
Сообщения: 3002


Год производства: 2017
Название ролика: Non-stop Satisfaction
Жанр: Solo,Masturbation
В ролях: Mary Rock
Продолжительность: 34 min 8 s
Подсайт и сайт: 1By-Day

Please give a big wanking welcome to newcomer Mary Rock – a fit to fuck porn actress ready for her orgasmic debut in today’s solo premium porn video shot in crystal clear 4K. The sexy and horny babe delights as she performs a striptease down to her pink and gets down to triggering a massive orgasm with both her Magic Wand vibrator and other sex toy right before your very eyes.

The long brown-haired and blue-eyed babe looks stunning and ready for her intimate close-up as she strips and teases with peeks of her natural medium tits and curvy tattooed ass. She’s barely legal but that doesn’t stop her from pulling out the big gun of vibrators, her Magic Wand.

Watch as Mary rubs it against her clit and then pulls out another sex toy for that deep into her shaved pink she craves. In 4K, witness just how scintillatingly hot Mary looks as she rides her toys into orgasm.

Тип видео : HD
Формат видео : MP4
Video
ID : 1
Format : AVC
Format/Info : Advanced Video Codec
Format profile : High@L5.2
Format settings : CABAC / 3 Ref Frames
Format settings, CABAC : Yes
Format settings, RefFrames : 3 frames
Format settings, GOP : M=3, N=29
Codec ID : avc1
Codec ID/Info : Advanced Video Coding
Duration : 34 min 8 s
Bit rate mode : Variable
Bit rate : 15.6 Mb/s
Width : 3 840 pixels
Height : 2 160 pixels
Display aspect ratio : 16:9
Frame rate mode : Constant
Frame rate : 29.970 (30000/1001) FPS
Standard : NTSC
Color space : YUV
Chroma subsampling : 4:2:0
Bit depth : 8 bits
Scan type : Progressive
Bits/(Pixel*Frame) : 0.063
Stream size : 3.72 GiB (98%)
Color range : Limited
Color primaries : BT.709
Transfer characteristics : BT.709
Matrix coefficients : BT.709

Audio
ID : 2
Format : AAC
Format/Info : Advanced Audio Codec
Format profile : LC
Codec ID : mp4a-40-2
Duration : 34 min 8 s
Duration_LastFrame : -20 ms
Bit rate mode : Constant
Bit rate : 317 kb/s
Channel(s) : 2 channels
Channel positions : Front: L R
Sampling rate : 48.0 kHz
Frame rate : 46.875 FPS (1024 SPF)
Compression mode : Lossy
Stream size : 77.5 MiB (2%)
Default : Yes
Alternate group : 1

Скриншоты:


Как тут качатьЗаказ порнушки!
Добавлен:  06 дек 2017, 08:17

Скачать торрент Смотреть онлайн
Скачать торрент

Размер: 3.8 ГБ
Скачали: 34
Статус Проверен
 

Последний сидер: 7 дней 8 часов 11 минут 8 секунд назад
Приватный: Нет (DHT включён)
Нет сидов? Пиши сюдаКак скачать отдельный файл из раздачи?


Вернуться к началу
 Профиль  
 
Показать сообщения за:  Поле сортировки  
Начать новую тему Ответить на тему  [ 1 сообщение ] 


Кто сейчас на конференции

Зарегистрированные пользователи: DerrickEvozy, Google [Bot], Yandex [Bot]


Вы не можете начинать темы
Вы не можете отвечать на сообщения
Вы не можете редактировать свои сообщения
Вы не можете удалять свои сообщения
Вы не можете добавлять вложения

Найти:
Перейти:  

Ресурс не предоставляет электронные версии произведений, а занимается лишь коллекционированием и каталогизацией ссылок, присылаемых и публикуемых на форуме нашими читателями. Если вы являетесь правообладателем какого-либо представленного материала и не желаете чтобы ссылка на него находилась в нашем каталоге, свяжитесь с нами и мы незамедлительно удалим её. Файлы для обмена на трекере предоставлены пользователями сайта, и администрация не несёт ответственности за их содержание. Просьба не заливать файлы, защищенные авторскими правами, а также файлы нелегального содержания!
cron