Начать новую тему Ответить на тему  [ 1 сообщение ] 
Статистика раздачи
Размер: 9.98 ГБ | Добавлен: 06 дек 2017, 14:50 | Скачали: 1193
Сидеров: 35  [0 байт/сек]    Личеров: 128  [0 байт/сек]

Автор

СообщениеДобавлено: 06 дек 2017, 14:50 

Не в сети
Супераплоадер
Супераплоадер
Аватара пользователя
Раздал: 653.37 ГБ
Скачал: 187.63 ГБ
Ратио: 3.482


Зарегистрирован: 10 окт 2013, 18:02
Сообщения: 1594


Имя актрисы: Vienna Rose
Название ролика: Get a Room
Подсайт и сайт: TeenFidelity.com / KellyMadisonMedia.com

Год производства: 2017 г.
Жанр: Creampie, All Sex
Продолжительность: 00:52:12

Описание:
While modeling for her photographer friend, Vienna catches the eye of an older man. She notices and decides to make a move for that daddy dick when her friend runs to grab something from her car. By the time her friend gets back, Vienna has Steve's cock down her throat and they're off to get a room so her pussy can get filled with cum.

Тип видео : HD
Формат видео : MP4
Video
ID : 2
Format : AVC
Format/Info : Advanced Video Codec
Format profile : High@L5.1
Format settings : CABAC / 3 Ref Frames
Format settings, CABAC : Yes
Format settings, RefFrames : 3 frames
Codec ID : avc1
Codec ID/Info : Advanced Video Coding
Duration : 52 min 11 s
Bit rate mode : Variable
Bit rate : 27.1 Mb/s
Maximum bit rate : 32.4 Mb/s
Width : 3 840 pixels
Height : 2 160 pixels
Display aspect ratio : 16:9
Frame rate mode : Constant
Frame rate : 23.976 (23976/1000) FPS
Original frame rate : 23.976 (24000/1001) FPS
Standard : NTSC
Color space : YUV
Chroma subsampling : 4:2:0
Bit depth : 8 bits
Scan type : Progressive
Bits/(Pixel*Frame) : 0.136
Stream size : 9.89 GiB (99%)
Encoded date : UTC 2017-11-28 23:48:16
Tagged date : UTC 2017-11-28 23:48:16
Color range : Limited
Color primaries : BT.709
Transfer characteristics : BT.709
Matrix coefficients : BT.709

Audio
ID : 1
Format : AAC
Format/Info : Advanced Audio Codec
Format profile : LC
Codec ID : mp4a-40-2
Duration : 52 min 11 s
Duration_LastFrame : -3 ms
Bit rate mode : Constant
Bit rate : 256 kb/s
Channel(s) : 2 channels
Channel positions : Front: L R
Sampling rate : 48.0 kHz
Frame rate : 46.875 FPS (1024 SPF)
Compression mode : Lossy
Stream size : 95.6 MiB (1%)
Encoded date : UTC 2017-11-28 23:48:16
Tagged date : UTC 2017-11-28 23:48:16

Other #1
ID : 3
Type : Scene description
Format : System Core
Codec ID : mp4s-02
Duration : 52 min 11 s
Encoded date : UTC 2017-11-28 23:49:22
Tagged date : UTC 2017-11-28 23:49:22

Other #2
ID : 4
Type : Object description
Format : System
Codec ID : mp4s-01
Duration : 52 min 11 s
Encoded date : UTC 2017-11-28 23:49:22
Tagged date : UTC 2017-11-28 23:49:22


Скриншоты:


Как тут качатьЗаказ порнушки!
Добавлен:  06 дек 2017, 14:50

Скачать торрент Смотреть онлайн
Скачать торрент

Размер: 9.98 ГБ
Скачали: 1193
Статус Проверен
 

Последний сидер: 1 час 32 минуты 4 секунды назад
Приватный: Нет (DHT включён)
Нет сидов? Пиши сюдаКак скачать отдельный файл из раздачи?


Вернуться к началу
 Профиль  
 
Показать сообщения за:  Поле сортировки  
Начать новую тему Ответить на тему  [ 1 сообщение ] 


Кто сейчас на конференции

Зарегистрированные пользователи: Google [Bot], KonradK, Yahoo [Bot], Yandex [Bot]


Вы не можете начинать темы
Вы не можете отвечать на сообщения
Вы не можете редактировать свои сообщения
Вы не можете удалять свои сообщения
Вы не можете добавлять вложения

Найти:
Перейти:  

Ресурс не предоставляет электронные версии произведений, а занимается лишь коллекционированием и каталогизацией ссылок, присылаемых и публикуемых на форуме нашими читателями. Если вы являетесь правообладателем какого-либо представленного материала и не желаете чтобы ссылка на него находилась в нашем каталоге, свяжитесь с нами и мы незамедлительно удалим её. Файлы для обмена на трекере предоставлены пользователями сайта, и администрация не несёт ответственности за их содержание. Просьба не заливать файлы, защищенные авторскими правами, а также файлы нелегального содержания!