Начать новую тему Ответить на тему  [ 1 сообщение ] 
Статистика раздачи
Размер: 5.03 ГБ | Добавлен: 07 дек 2017, 07:13 | Скачали: 198
Сидеров: 52  [0 байт/сек]    Личеров: 162  [0 байт/сек]

Автор

СообщениеДобавлено: 07 дек 2017, 07:13 

В сети
Супераплоадер
Супераплоадер
Аватара пользователя
Раздал: 653.37 ГБ
Скачал: 187.63 ГБ
Ратио: 3.482


Зарегистрирован: 10 окт 2013, 18:02
Сообщения: 1595


Год производства: 2017
Название ролика: time with 4 guys in this Cum For Cover scene
Жанр: All Sex
В ролях: Lien Parker
Продолжительность: 59 min 1 s
Подсайт и сайт: Cum For Cover

Lien Parker semi-gangbanged this time with 4 guys in this Cum For Cover scene. Great blowjob talents presented, and well kept the guys aroused with all those fuckings! Good job :)

Тип видео : HD
Формат видео : MP4
Video
ID : 1
Format : AVC
Format/Info : Advanced Video Codec
Format profile : High@L4
Format settings : 2 Ref Frames
Format settings, CABAC : No
Format settings, RefFrames : 2 frames
Codec ID : avc1
Codec ID/Info : Advanced Video Coding
Duration : 59 min 1 s
Bit rate mode : Variable
Bit rate : 12.0 Mb/s
Maximum bit rate : 14.0 Mb/s
Width : 1 920 pixels
Height : 1 080 pixels
Display aspect ratio : 16:9
Frame rate mode : Constant
Frame rate : 29.970 (30000/1001) FPS
Standard : NTSC
Color space : YUV
Chroma subsampling : 4:2:0
Bit depth : 8 bits
Scan type : Progressive
Bits/(Pixel*Frame) : 0.194
Stream size : 4.96 GiB (99%)
Color range : Limited
Color primaries : BT.709
Transfer characteristics : BT.709
Matrix coefficients : BT.709

Audio
ID : 2
Format : AAC
Format/Info : Advanced Audio Codec
Format profile : LC
Codec ID : mp4a-40-2
Duration : 59 min 1 s
Duration_LastFrame : -16 ms
Bit rate mode : Constant
Bit rate : 157 kb/s
Channel(s) : 2 channels
Channel positions : Front: L R
Sampling rate : 48.0 kHz
Frame rate : 46.875 FPS (1024 SPF)
Compression mode : Lossy
Stream size : 66.4 MiB (1%)
Default : Yes
Alternate group : 1


Скриншоты:


Как тут качатьЗаказ порнушки!
Добавлен:  07 дек 2017, 07:13

Скачать торрент Смотреть онлайн
Скачать торрент

Размер: 5.03 ГБ
Скачали: 198
Статус Проверен
 

Последний сидер: 2 дня 14 часов 9 минут 53 секунды назад
Приватный: Нет (DHT включён)
Нет сидов? Пиши сюдаКак скачать отдельный файл из раздачи?


Вернуться к началу
 Профиль  
 
Показать сообщения за:  Поле сортировки  
Начать новую тему Ответить на тему  [ 1 сообщение ] 


Кто сейчас на конференции

Зарегистрированные пользователи: Google [Bot], sergej10, Yandex [Bot]


Вы не можете начинать темы
Вы не можете отвечать на сообщения
Вы не можете редактировать свои сообщения
Вы не можете удалять свои сообщения
Вы не можете добавлять вложения

Найти:
Перейти:  

Ресурс не предоставляет электронные версии произведений, а занимается лишь коллекционированием и каталогизацией ссылок, присылаемых и публикуемых на форуме нашими читателями. Если вы являетесь правообладателем какого-либо представленного материала и не желаете чтобы ссылка на него находилась в нашем каталоге, свяжитесь с нами и мы незамедлительно удалим её. Файлы для обмена на трекере предоставлены пользователями сайта, и администрация не несёт ответственности за их содержание. Просьба не заливать файлы, защищенные авторскими правами, а также файлы нелегального содержания!