Начать новую тему Ответить на тему  [ 1 сообщение ] 
Статистика раздачи
Размер: 1.05 ГБ | Добавлен: 07 дек 2017, 07:34 | Скачали: 6550
Сидеров: 255  [0 байт/сек]    Личеров: 141  [0 байт/сек]

Автор

СообщениеДобавлено: 07 дек 2017, 07:34 

Не в сети
Супераплоадер
Супераплоадер
Аватара пользователя
Раздал: 653.37 ГБ
Скачал: 187.63 ГБ
Ратио: 3.482


Зарегистрирован: 10 окт 2013, 18:02
Сообщения: 1594


Год производства: 2017
Название ролика: Carolina Vogue - Spoiled Rotten
Жанр: All Sex,Anal
В ролях: Carolina Vogue
Продолжительность: 27 min 57 s
Подсайт и сайт: Elegant Anal

Тип видео : HD
Формат видео : MP4
Video
ID : 1
Format : AVC
Format/Info : Advanced Video Codec
Format profile : High@L5
Format settings : CABAC / 5 Ref Frames
Format settings, CABAC : Yes
Format settings, RefFrames : 5 frames
Codec ID : avc1
Codec ID/Info : Advanced Video Coding
Duration : 27 min 57 s
Bit rate : 5 209 kb/s
Width : 1 920 pixels
Height : 1 080 pixels
Display aspect ratio : 16:9
Frame rate mode : Constant
Frame rate : 23.976 (24000/1001) FPS
Color space : YUV
Chroma subsampling : 4:2:0
Bit depth : 8 bits
Scan type : Progressive
Bits/(Pixel*Frame) : 0.105
Stream size : 1.02 GiB (97%)
Writing library : x264 core 148
Encoding settings : cabac=1 / ref=5 / deblock=1:0:0 / analyse=0x3:0x113 / me=hex / subme=8 / psy=1 / psy_rd=1.00:0.00 / mixed_ref=1 / me_range=16 / chroma_me=1 / trellis=2 / 8x8dct=1 / cqm=0 / deadzone=21,11 / fast_pskip=1 / chroma_qp_offset=-2 / threads=34 / lookahead_threads=5 / sliced_threads=0 / nr=0 / decimate=1 / interlaced=0 / bluray_compat=0 / constrained_intra=0 / bframes=3 / b_pyramid=2 / b_adapt=1 / b_bias=0 / direct=3 / weightb=1 / open_gop=0 / weightp=2 / keyint=90 / keyint_min=46 / scenecut=0 / intra_refresh=0 / rc_lookahead=50 / rc=crf / mbtree=1 / crf=18.0 / qcomp=0.60 / qpmin=0 / qpmax=69 / qpstep=4 / vbv_maxrate=14000 / vbv_bufsize=583 / crf_max=21.0 / nal_hrd=none / filler=0 / ip_ratio=1.40 / aq=1:1.00

Audio
ID : 2
Format : AAC
Format/Info : Advanced Audio Codec
Format profile : LC
Codec ID : mp4a-40-2
Duration : 27 min 57 s
Duration_LastFrame : -18 ms
Bit rate mode : Constant
Bit rate : 140 kb/s
Channel(s) : 2 channels
Channel positions : Front: L R
Sampling rate : 48.0 kHz
Frame rate : 46.875 FPS (1024 SPF)
Compression mode : Lossy
Stream size : 27.9 MiB (3%)
Default : Yes
Alternate group : 1


Скриншоты:


Как тут качатьЗаказ порнушки!
Добавлен:  07 дек 2017, 07:34

Скачать торрент Смотреть онлайн
Скачать торрент

Размер: 1.05 ГБ
Скачали: 6550
Статус Проверен
 

Последний сидер: 12 минут 9 секунд назад
Приватный: Нет (DHT включён)
Нет сидов? Пиши сюдаКак скачать отдельный файл из раздачи?


Вернуться к началу
 Профиль  
 
Показать сообщения за:  Поле сортировки  
Начать новую тему Ответить на тему  [ 1 сообщение ] 


Кто сейчас на конференции

Зарегистрированные пользователи: Google [Bot], Yandex [Bot]


Вы не можете начинать темы
Вы не можете отвечать на сообщения
Вы не можете редактировать свои сообщения
Вы не можете удалять свои сообщения
Вы не можете добавлять вложения

Найти:
Перейти:  

Ресурс не предоставляет электронные версии произведений, а занимается лишь коллекционированием и каталогизацией ссылок, присылаемых и публикуемых на форуме нашими читателями. Если вы являетесь правообладателем какого-либо представленного материала и не желаете чтобы ссылка на него находилась в нашем каталоге, свяжитесь с нами и мы незамедлительно удалим её. Файлы для обмена на трекере предоставлены пользователями сайта, и администрация не несёт ответственности за их содержание. Просьба не заливать файлы, защищенные авторскими правами, а также файлы нелегального содержания!