Начать новую тему Ответить на тему  [ 1 сообщение ] 
Статистика раздачи
Размер: 1.15 ГБ | Добавлен: 07 дек 2017, 07:42 | Скачали: 3547
Сидеров: 56  [107.05 КБ/сек]    Личеров: 40  [0 байт/сек]

Автор

СообщениеДобавлено: 07 дек 2017, 07:42 

Не в сети
Супераплоадер
Супераплоадер
Аватара пользователя
Раздал: 653.37 ГБ
Скачал: 187.63 ГБ
Ратио: 3.482


Зарегистрирован: 10 окт 2013, 18:02
Сообщения: 1594


Год производства: 2017
Название ролика: Bratty Teens - Kenzie Reeves
Жанр: All Sex
В ролях: Small Hands, Kenzie Reeves
Продолжительность: 27 min 38 s
Подсайт и сайт: Burning Angel

Video Description:Sexy blonde Kenzie Reeves is in the mood to play - and by play we mean she wants her boyfriend to slap her around a little and fuck her tight teen pussy. She put on a striped pair of panties, a crop top and fuzzy kitty cat ears hoping to catch his interest.. When she didn't, she resorted to relentlessly hounding him for selfies - like, why can't he ever just play with her and have fun for once?! She got so wet when she managed to get a rise out of him.. because rough playtime was exactly her plan. She's a smart fucking brat and ALWAYS gets her way. Don't get scratched!

Тип видео : HD
Формат видео : MP4
Video
ID : 1
Format : AVC
Format/Info : Advanced Video Codec
Format profile : High@L4
Format settings : CABAC / 4 Ref Frames
Format settings, CABAC : Yes
Format settings, RefFrames : 4 frames
Codec ID : avc1
Codec ID/Info : Advanced Video Coding
Duration : 27 min 38 s
Bit rate : 5 750 kb/s
Width : 1 920 pixels
Height : 1 080 pixels
Display aspect ratio : 16:9
Frame rate mode : Constant
Frame rate : 23.976 (24000/1001) FPS
Color space : YUV
Chroma subsampling : 4:2:0
Bit depth : 8 bits
Scan type : Progressive
Bits/(Pixel*Frame) : 0.116
Stream size : 1.11 GiB (97%)
Writing library : x264 core 148
Encoding settings : cabac=1 / ref=3 / deblock=1:0:0 / analyse=0x3:0x113 / me=umh / subme=7 / psy=1 / psy_rd=1.00:0.00 / mixed_ref=1 / me_range=16 / chroma_me=1 / trellis=1 / 8x8dct=1 / cqm=0 / deadzone=21,11 / fast_pskip=1 / chroma_qp_offset=-2 / threads=34 / lookahead_threads=5 / sliced_threads=0 / nr=0 / decimate=1 / interlaced=0 / bluray_compat=0 / constrained_intra=0 / bframes=3 / b_pyramid=2 / b_adapt=1 / b_bias=0 / direct=1 / weightb=1 / open_gop=0 / weightp=2 / keyint=12 / keyint_min=1 / scenecut=40 / intra_refresh=0 / rc_lookahead=12 / rc=crf / mbtree=1 / crf=22.0 / qcomp=0.60 / qpmin=0 / qpmax=69 / qpstep=4 / ip_ratio=1.40 / aq=1:1.00

Audio
ID : 2
Format : AAC
Format/Info : Advanced Audio Codec
Format profile : LC
Codec ID : mp4a-40-2
Duration : 27 min 38 s
Duration_LastFrame : -5 ms
Bit rate mode : Constant
Bit rate : 192 kb/s
Channel(s) : 2 channels
Channel positions : Front: L R
Sampling rate : 44.1 kHz
Frame rate : 43.066 FPS (1024 SPF)
Compression mode : Lossy
Stream size : 38.0 MiB (3%)
Default : Yes
Alternate group : 1

Скриншоты:


Как тут качатьЗаказ порнушки!
Добавлен:  07 дек 2017, 07:42

Скачать торрент Смотреть онлайн
Скачать торрент

Размер: 1.15 ГБ
Скачали: 3547
Статус Проверен
 

Последний сидер: 56 секунд назад
Приватный: Нет (DHT включён)
Нет сидов? Пиши сюдаКак скачать отдельный файл из раздачи?


Вернуться к началу
 Профиль  
 
Показать сообщения за:  Поле сортировки  
Начать новую тему Ответить на тему  [ 1 сообщение ] 


Кто сейчас на конференции

Зарегистрированные пользователи: Google [Bot], oihar, Robert0Fen, Yahoo [Bot], Yandex [Bot], ПАвлуша23


Вы не можете начинать темы
Вы не можете отвечать на сообщения
Вы не можете редактировать свои сообщения
Вы не можете удалять свои сообщения
Вы не можете добавлять вложения

Найти:
Перейти:  

Ресурс не предоставляет электронные версии произведений, а занимается лишь коллекционированием и каталогизацией ссылок, присылаемых и публикуемых на форуме нашими читателями. Если вы являетесь правообладателем какого-либо представленного материала и не желаете чтобы ссылка на него находилась в нашем каталоге, свяжитесь с нами и мы незамедлительно удалим её. Файлы для обмена на трекере предоставлены пользователями сайта, и администрация не несёт ответственности за их содержание. Просьба не заливать файлы, защищенные авторскими правами, а также файлы нелегального содержания!