Начать новую тему Ответить на тему  [ 1 сообщение ] 
Статистика раздачи
Размер: 2.41 ГБ | Добавлен: 11 фев 2018, 20:13 | Скачали: 230
Сидеров: 63  [0 байт/сек]    Личеров: 130  [0 байт/сек]

Автор

СообщениеДобавлено: 11 фев 2018, 20:13 

Не в сети
Супераплоадер
Супераплоадер
Аватара пользователя
Раздал: 863.29 ГБ
Скачал: 248.15 ГБ
Ратио: 3.479


Зарегистрирован: 10 окт 2013, 18:02
Сообщения: 2283


Имя актрисы: Alex More
Название ролика: Soccer Slut
Подсайт и сайт: StreetBlowJobs.com / RealityKings.com

Год производства:
2018 г.
Жанр: Amateur, Sports, Brunette, Outside, Park, Blowjob, Doggystyle, Hotpants, G-string, Fit / Athletic, Blowjob - POV, Missionary - POV, Reverse Cowgirl - POV, Doggystyle - POV
Продолжительность: 00:33:53

Описание:
Am I the only one with a raging hard-on for girl soccer players? I ran into this aggressive brunette cutie Alex More while she was practicing her moves with her ass hanging out of these tiny, clinging shorts and I knew I had to do anything to see what she looked like with just her little white socks on. Alex plays great defense so I had to start slow, giving her $150 for an hour-long soccer lesson and a flash of her pale, perky tits. Then I brought her back to my yard and booted an offer her way: I would give her a few hundred in cash to fuck around with her on camera. As fun as it was playing with her camel toe through her shorts, I was even more turned on when Alex stripped to her thong and shook her sexy tush in my face. Then she dropped to all-fours so she could choke on my dick. I had to give her a yellow card so I could squeeze my dick in her tight, athletic pussy, and considering we were outside, this girl was LOUD about how much she loved my penetrating her goal!

Скриншоты:


Тип видео : HD
Формат видео : MP4
Video
ID : 1
Format : AVC
Format/Info : Advanced Video Codec
Format profile : High@L4
Format settings : CABAC / 4 Ref Frames
Format settings, CABAC : Yes
Format settings, RefFrames : 4 frames
Codec ID : avc1
Codec ID/Info : Advanced Video Coding
Duration : 33 min 53 s
Bit rate : 10 000 kb/s
Width : 1 920 pixels
Height : 1 080 pixels
Display aspect ratio : 16:9
Frame rate mode : Constant
Frame rate : 23.976 (24000/1001) FPS
Color space : YUV
Chroma subsampling : 4:2:0
Bit depth : 8 bits
Scan type : Progressive
Bits/(Pixel*Frame) : 0.201
Stream size : 2.36 GiB (98%)
Writing library : x264 core 148 r2665 a01e339
Encoding settings : cabac=1 / ref=3 / deblock=1:0:0 / analyse=0x3:0x113 / me=umh / subme=8 / psy=1 / psy_rd=1.00:0.00 / mixed_ref=1 / me_range=16 / chroma_me=1 / trellis=1 / 8x8dct=1 / cqm=0 / deadzone=21,11 / fast_pskip=1 / chroma_qp_offset=-2 / threads=34 / lookahead_threads=5 / sliced_threads=0 / nr=0 / decimate=1 / interlaced=0 / bluray_compat=0 / constrained_intra=0 / bframes=3 / b_pyramid=2 / b_adapt=2 / b_bias=0 / direct=3 / weightb=1 / open_gop=0 / weightp=2 / keyint=60 / keyint_min=6 / scenecut=40 / intra_refresh=0 / rc_lookahead=50 / rc=abr / mbtree=1 / bitrate=10000 / ratetol=1.0 / qcomp=0.60 / qpmin=0 / qpmax=69 / qpstep=4 / ip_ratio=1.40 / aq=1:1.00

Audio
ID : 2
Format : AAC
Format/Info : Advanced Audio Codec
Format profile : LC
Codec ID : mp4a-40-2
Duration : 33 min 53 s
Duration_LastFrame : -18 ms
Bit rate mode : Constant
Bit rate : 192 kb/s
Channel(s) : 2 channels
Channel positions : Front: L R
Sampling rate : 48.0 kHz
Frame rate : 46.875 FPS (1024 SPF)
Compression mode : Lossy
Stream size : 46.5 MiB (2%)
Default : Yes
Alternate group : 1


Как тут качатьЗаказ порнушки!
Добавлен:  11 фев 2018, 20:13

Скачать торрент Смотреть онлайн
Скачать торрент

Размер: 2.41 ГБ
Скачали: 230
Статус Проверен
 

Последний сидер: 12 часов 25 минут 45 секунд назад
Приватный: Нет (DHT включён)
Нет сидов? Пиши сюдаКак скачать отдельный файл из раздачи?


Вернуться к началу
 Профиль  
 
Показать сообщения за:  Поле сортировки  
Начать новую тему Ответить на тему  [ 1 сообщение ] 


Кто сейчас на конференции

Зарегистрированные пользователи: Google [Bot], Yandex [Bot]


Вы не можете начинать темы
Вы не можете отвечать на сообщения
Вы не можете редактировать свои сообщения
Вы не можете удалять свои сообщения
Вы не можете добавлять вложения

Найти:
Перейти:  

Ресурс не предоставляет электронные версии произведений, а занимается лишь коллекционированием и каталогизацией ссылок, присылаемых и публикуемых на форуме нашими читателями. Если вы являетесь правообладателем какого-либо представленного материала и не желаете чтобы ссылка на него находилась в нашем каталоге, свяжитесь с нами и мы незамедлительно удалим её. Файлы для обмена на трекере предоставлены пользователями сайта, и администрация не несёт ответственности за их содержание. Просьба не заливать файлы, защищенные авторскими правами, а также файлы нелегального содержания!