Начать новую тему Ответить на тему  [ 1 сообщение ] 
Статистика раздачи
Размер: 1.03 ГБ | Добавлен: 11 фев 2018, 20:24 | Скачали: 3999
Сидеров: 34  [0 байт/сек]    Личеров: 12  [0 байт/сек]

Автор

СообщениеДобавлено: 11 фев 2018, 20:24 

Не в сети
Супераплоадер
Супераплоадер
Аватара пользователя
Раздал: 863.29 ГБ
Скачал: 248.15 ГБ
Ратио: 3.479


Зарегистрирован: 10 окт 2013, 18:02
Сообщения: 2283


Год производства: 2018
Название ролика: How About Some Dick And Piss To Heal Those Wounds
Жанр: All Sex,Fetish , Pissing
Продолжительность: 20 min 53 s
Подсайт и сайт: Fully Clothed Pissing

Description
A simple, beautiful setup is all we needed for this couple. Bored at home with a broken arm, this chick is happy to have a man who will fuck her pain away! Right then and there, while still on the couch, he whips out his dick and she gobbles it in, only to bend over and take it hard from there! This babe loves the attention, so she's going to make sure her man gets off hard, busting a nut right in her pretty face! That's not all, though, because this chick wants some piss on her face too, and then she's gonna give a golden shower right back to her man. Lucky dude! Now that's how to spend an afternoon!

Тип видео : HD
Формат видео : MP4
Video
ID : 1
Format : AVC
Format/Info : Advanced Video Codec
Format profile : Main@L4
Format settings : 2 Ref Frames
Format settings, CABAC : No
Format settings, RefFrames : 2 frames
Format settings, GOP : M=2, N=25
Codec ID : avc1
Codec ID/Info : Advanced Video Coding
Duration : 20 min 53 s
Bit rate : 6 789 kb/s
Width : 1 920 pixels
Height : 1 080 pixels
Display aspect ratio : 16:9
Frame rate mode : Constant
Frame rate : 25.000 FPS
Color space : YUV
Chroma subsampling : 4:2:0
Bit depth : 8 bits
Scan type : Progressive
Bits/(Pixel*Frame) : 0.131
Stream size : 1 015 MiB (96%)
Color range : Limited
Color primaries : BT.709
Transfer characteristics : BT.709
Matrix coefficients : BT.709

Audio
ID : 2
Format : AAC
Format/Info : Advanced Audio Codec
Format profile : LC
Codec ID : mp4a-40-2
Duration : 20 min 53 s
Bit rate mode : Constant
Bit rate : 255 kb/s
Channel(s) : 2 channels
Channel positions : Front: L R
Sampling rate : 44.1 kHz
Frame rate : 43.066 FPS (1024 SPF)
Compression mode : Lossy
Stream size : 38.1 MiB (4%)
Default : Yes
Alternate group : 1

Скриншоты:


Как тут качатьЗаказ порнушки!
Добавлен:  11 фев 2018, 20:24

Скачать торрент Смотреть онлайн
Скачать торрент

Размер: 1.03 ГБ
Скачали: 3999
Статус Проверен
 

Последний сидер: 32 минуты 2 секунды назад
Приватный: Нет (DHT включён)
Нет сидов? Пиши сюдаКак скачать отдельный файл из раздачи?


Вернуться к началу
 Профиль  
 
Показать сообщения за:  Поле сортировки  
Начать новую тему Ответить на тему  [ 1 сообщение ] 


Кто сейчас на конференции

Зарегистрированные пользователи: Google [Bot], Yandex [Bot]


Вы не можете начинать темы
Вы не можете отвечать на сообщения
Вы не можете редактировать свои сообщения
Вы не можете удалять свои сообщения
Вы не можете добавлять вложения

Найти:
Перейти:  

Ресурс не предоставляет электронные версии произведений, а занимается лишь коллекционированием и каталогизацией ссылок, присылаемых и публикуемых на форуме нашими читателями. Если вы являетесь правообладателем какого-либо представленного материала и не желаете чтобы ссылка на него находилась в нашем каталоге, свяжитесь с нами и мы незамедлительно удалим её. Файлы для обмена на трекере предоставлены пользователями сайта, и администрация не несёт ответственности за их содержание. Просьба не заливать файлы, защищенные авторскими правами, а также файлы нелегального содержания!