Начать новую тему Ответить на тему  [ 1 сообщение ] 
Статистика раздачи
Размер: 1.24 ГБ | Добавлен: 11 фев 2018, 20:43 | Скачали: 368
Сидеров: 7  [0 байт/сек]    Личеров: 9  [0 байт/сек]
Автор

СообщениеДобавлено: 11 фев 2018, 20:43 

Не в сети
Супераплоадер
Супераплоадер
Аватара пользователя
Раздал: 1011.16 ГБ
Скачал: 272.47 ГБ
Ратио: 3.711


Зарегистрирован: 10 окт 2013, 18:02
Сообщения: 3039
Год производства: 2018
Название ролика: Pound Me By The Wall And Shower Me In Piss
Жанр: All Sex,Fetish , Pissing
Продолжительность: 24 min 24 s
Подсайт и сайт: Fully Clothed Pissing

Description
Sometimes you just gotta fuck, anytime, anywhere, and this couple has found a beautifully graffitied backdrop to have some fun in front of. Wearing a plaid top and black skirt, this freak can't wait to get her man's cock out, leaving the rest of his nice outfit on. She sucks this guy silly and then he pulls her panties aside to munch on some pussy, and from there these fully clothed fuckers go at it, looking classy and acting nasty! After going at it in several positions this horny gal strokes that dick until she feels cum fly on her pretty, clothed self! That's not all, though, as this guy also has some piss to squirt out, and he beautifully golden showers this chick on her outfit and big tits! That's how to end a fuck scene!

Скриншоты:


Тип видео : HD
Формат видео : MP4
Video
ID : 1
Format : AVC
Format/Info : Advanced Video Codec
Format profile : Main@L4
Format settings : 2 Ref Frames
Format settings, CABAC : No
Format settings, RefFrames : 2 frames
Format settings, GOP : M=2, N=25
Codec ID : avc1
Codec ID/Info : Advanced Video Coding
Duration : 24 min 24 s
Bit rate : 6 988 kb/s
Width : 1 920 pixels
Height : 1 080 pixels
Display aspect ratio : 16:9
Frame rate mode : Constant
Frame rate : 25.000 FPS
Color space : YUV
Chroma subsampling : 4:2:0
Bit depth : 8 bits
Scan type : Progressive
Bits/(Pixel*Frame) : 0.135
Stream size : 1.19 GiB (96%)
Color range : Limited
Color primaries : BT.709
Transfer characteristics : BT.709
Matrix coefficients : BT.709

Audio
ID : 2
Format : AAC
Format/Info : Advanced Audio Codec
Format profile : LC
Codec ID : mp4a-40-2
Duration : 24 min 24 s
Duration_LastFrame : -1 ms
Bit rate mode : Constant
Bit rate : 265 kb/s
Channel(s) : 2 channels
Channel positions : Front: L R
Sampling rate : 44.1 kHz
Frame rate : 43.066 FPS (1024 SPF)
Compression mode : Lossy
Stream size : 45.4 MiB (4%)
Default : Yes
Alternate group : 1


Как тут качатьЗаказ порнушки!
Добавлен:  11 фев 2018, 20:43

Скачать торрент Магнет ссылка
Скачать торрент

Размер: 1.24 ГБ
Скачали: 368
Статус Проверен
 
Последний сидер: 1 день 2 часа 25 минут 8 секунд назад
Приватный: Нет (DHT включён)
Нет сидов? Пиши сюдаКак скачать отдельный файл из раздачи?


Вернуться к началу
 Профиль  
 
Показать сообщения за:  Поле сортировки  
Начать новую тему Ответить на тему  [ 1 сообщение ] 


Кто сейчас на конференции

Зарегистрированные пользователи: Google [Bot], Yandex [Bot]


Вы не можете начинать темы
Вы не можете отвечать на сообщения
Вы не можете редактировать свои сообщения
Вы не можете удалять свои сообщения
Вы не можете добавлять вложения

Найти:
Перейти:  

Ресурс не предоставляет электронные версии произведений, а занимается лишь коллекционированием и каталогизацией ссылок, присылаемых и публикуемых на форуме нашими читателями. Если вы являетесь правообладателем какого-либо представленного материала и не желаете чтобы ссылка на него находилась в нашем каталоге, свяжитесь с нами и мы незамедлительно удалим её. Файлы для обмена на трекере предоставлены пользователями сайта, и администрация не несёт ответственности за их содержание. Просьба не заливать файлы, защищенные авторскими правами, а также файлы нелегального содержания!