Начать новую тему Ответить на тему  [ 1 сообщение ] 
Статистика раздачи
Размер: 457.35 МБ | Добавлен: 11 фев 2018, 20:52 | Скачали: 304
Сидеров: 20  [0 байт/сек]    Личеров: 22  [0 байт/сек]
Автор

СообщениеДобавлено: 11 фев 2018, 20:52 

Не в сети
Супераплоадер
Супераплоадер
Аватара пользователя
Раздал: 1011.16 ГБ
Скачал: 272.47 ГБ
Ратио: 3.711


Зарегистрирован: 10 окт 2013, 18:02
Сообщения: 3039
Год производства: 2018
Название ролика: Natalia Forrest Wank In The Woods
Жанр: Solo,Masturbation
В ролях: Natalia Forrest
Продолжительность: 10 min 29 s
Подсайт и сайт:Wank it now

Let's face it... Everyone loves a bit of outdoor action, knowing someone could catch you or be secretly watching is a huge turn on! Natalia takes you into the woods and tells you to get your COCK out and start to WANK while she flashes her shaven PUSSY! She knows there is no way you'll be able to resist the chance to have a WANK and drain every drop of SPUNK out of your loaded BOLLOCKS! Let's hope someone is secretly watching the pair of you!

Скриншоты:


Тип видео : HD
Формат видео : MP4
Video
ID : 1
Format : AVC
Format/Info : Advanced Video Codec
Format profile : High@L4.2
Format settings : CABAC / 4 Ref Frames
Format settings, CABAC : Yes
Format settings, RefFrames : 4 frames
Codec ID : avc1
Codec ID/Info : Advanced Video Coding
Duration : 10 min 29 s
Bit rate mode : Variable
Bit rate : 6 000 kb/s
Width : 1 920 pixels
Height : 1 080 pixels
Display aspect ratio : 16:9
Frame rate mode : Constant
Frame rate : 25.000 FPS
Standard : PAL
Color space : YUV
Chroma subsampling : 4:2:0
Bit depth : 8 bits
Scan type : Progressive
Bits/(Pixel*Frame) : 0.116
Stream size : 447 MiB (98%)
Color range : Limited
Color primaries : BT.709
Transfer characteristics : BT.709
Matrix coefficients : BT.709

Audio
ID : 2
Format : AAC
Format/Info : Advanced Audio Codec
Format profile : LC
Codec ID : mp4a-40-2
Duration : 10 min 29 s
Duration_LastFrame : -9 ms
Bit rate mode : Constant
Bit rate : 126 kb/s
Channel(s) : 2 channels
Channel positions : Front: L R
Sampling rate : 44.1 kHz
Frame rate : 43.066 FPS (1024 SPF)
Compression mode : Lossy
Stream size : 9.43 MiB (2%)
Default : Yes
Alternate group : 1


Как тут качатьЗаказ порнушки!
Добавлен:  11 фев 2018, 20:52

Скачать торрент Магнет ссылка
Скачать торрент

Размер: 457.35 МБ
Скачали: 304
Статус Проверен
 
Последний сидер: 2 дня 11 часов 32 минуты 7 секунд назад
Приватный: Нет (DHT включён)
Нет сидов? Пиши сюдаКак скачать отдельный файл из раздачи?


Вернуться к началу
 Профиль  
 
Показать сообщения за:  Поле сортировки  
Начать новую тему Ответить на тему  [ 1 сообщение ] 


Кто сейчас на конференции

Зарегистрированные пользователи: Google [Bot], Yandex [Bot]


Вы не можете начинать темы
Вы не можете отвечать на сообщения
Вы не можете редактировать свои сообщения
Вы не можете удалять свои сообщения
Вы не можете добавлять вложения

Найти:
Перейти:  

Ресурс не предоставляет электронные версии произведений, а занимается лишь коллекционированием и каталогизацией ссылок, присылаемых и публикуемых на форуме нашими читателями. Если вы являетесь правообладателем какого-либо представленного материала и не желаете чтобы ссылка на него находилась в нашем каталоге, свяжитесь с нами и мы незамедлительно удалим её. Файлы для обмена на трекере предоставлены пользователями сайта, и администрация не несёт ответственности за их содержание. Просьба не заливать файлы, защищенные авторскими правами, а также файлы нелегального содержания!