Начать новую тему Ответить на тему  [ 1 сообщение ] 
Статистика раздачи
Размер: 1.1 ГБ | Добавлен: 12 фев 2018, 11:37 | Скачали: 856
Сидеров: 11  [0 байт/сек]    Личеров: 12  [0 байт/сек]

Автор

СообщениеДобавлено: 12 фев 2018, 11:37 

Не в сети
Супераплоадер
Супераплоадер
Аватара пользователя
Раздал: 963.48 ГБ
Скачал: 267.63 ГБ
Ратио: 3.600


Зарегистрирован: 10 окт 2013, 18:02
Сообщения: 2814


Год производства: 2018
Название ролика: Beth Spiby My Secret Crush Part 1
Жанр: Solo,Masturbation
В ролях: Beth Spiby
Продолжительность:9 min 47 s
Подсайт и сайт:Wank it now

Beth has had an amazing night at the College reunion. She's really pleased that she went and can't thank you enough for the lift home! Beth invites you in and tells you that she used to have a crush on you back in the day! She's much more confident now and wants to make you aware of her feelings! When she discovers you had a secret crush on her too, she offers you the chance to explore those feelings! Beth pulls out one of her favourite toys and starts to tease her juice PUSSY! How much of this sexy babe will you be able to handle before you shoot your SPUNK?

Тип видео : HD
Формат видео : MP4
Video
ID : 1
Format : AVC
Format/Info : Advanced Video Codec
Format profile : High@L5.1
Format settings : CABAC / 4 Ref Frames
Format settings, CABAC : Yes
Format settings, RefFrames : 4 frames
Codec ID : avc1
Codec ID/Info : Advanced Video Coding
Duration : 9 min 47 s
Bit rate mode : Variable
Bit rate : 16.0 Mb/s
Width : 3 840 pixels
Height : 2 160 pixels
Display aspect ratio : 16:9
Frame rate mode : Constant
Frame rate : 25.000 FPS
Standard : PAL
Color space : YUV
Chroma subsampling : 4:2:0
Bit depth : 8 bits
Scan type : Progressive
Bits/(Pixel*Frame) : 0.077
Stream size : 1.09 GiB (99%)
Color range : Limited
Color primaries : BT.709
Transfer characteristics : BT.709
Matrix coefficients : BT.709

Audio
ID : 2
Format : AAC
Format/Info : Advanced Audio Codec
Format profile : LC
Codec ID : mp4a-40-2
Duration : 9 min 47 s
Duration_LastFrame : -21 ms
Bit rate mode : Constant
Bit rate : 192 kb/s
Channel(s) : 2 channels
Channel positions : Front: L R
Sampling rate : 44.1 kHz
Frame rate : 43.066 FPS (1024 SPF)
Compression mode : Lossy
Stream size : 13.3 MiB (1%)
Default : Yes
Alternate group : 1


Скриншоты:


Как тут качатьЗаказ порнушки!
Добавлен:  12 фев 2018, 11:37

Скачать торрент Смотреть онлайн
Скачать торрент

Размер: 1.1 ГБ
Скачали: 856
Статус Проверен
 

Последний сидер: 3 дня 1 час 16 минут 52 секунды назад
Приватный: Нет (DHT включён)
Нет сидов? Пиши сюдаКак скачать отдельный файл из раздачи?


Вернуться к началу
 Профиль  
 
Показать сообщения за:  Поле сортировки  
Начать новую тему Ответить на тему  [ 1 сообщение ] 


Кто сейчас на конференции

Зарегистрированные пользователи: Google [Bot], Yandex [Bot]


Вы не можете начинать темы
Вы не можете отвечать на сообщения
Вы не можете редактировать свои сообщения
Вы не можете удалять свои сообщения
Вы не можете добавлять вложения

Найти:
Перейти:  

Ресурс не предоставляет электронные версии произведений, а занимается лишь коллекционированием и каталогизацией ссылок, присылаемых и публикуемых на форуме нашими читателями. Если вы являетесь правообладателем какого-либо представленного материала и не желаете чтобы ссылка на него находилась в нашем каталоге, свяжитесь с нами и мы незамедлительно удалим её. Файлы для обмена на трекере предоставлены пользователями сайта, и администрация не несёт ответственности за их содержание. Просьба не заливать файлы, защищенные авторскими правами, а также файлы нелегального содержания!