Начать новую тему Ответить на тему  [ 1 сообщение ] 
Статистика раздачи
Размер: 1.1 ГБ | Добавлен: 12 фев 2018, 11:55 | Скачали: 912
Сидеров: 27  [0 байт/сек]    Личеров: 29  [0 байт/сек]

Автор

СообщениеДобавлено: 12 фев 2018, 11:55 

Не в сети
Супераплоадер
Супераплоадер
Аватара пользователя
Раздал: 963.48 ГБ
Скачал: 267.63 ГБ
Ратио: 3.600


Зарегистрирован: 10 окт 2013, 18:02
Сообщения: 2814


Год производства: 2018
Название ролика: Bonnie A Quick Wank
Жанр: Solo,Masturbation
В ролях: Bonnie A
Продолжительность:9 min 47 s
Подсайт и сайт:Wank it now

Bonnie hasn't been to the dentist for a couple of years... She has a phobia which means she gets really nervous and tries to avoid dentists! To take her mind off of things you whip out your huge COCK! Bonnie can't think of anything else other than the size of your DICK and what she might be able to do with it! One thing leads to another and before you know it... Bonnie is showing you her shaven PUSSY while instructing you to WANK!

Тип видео : HD
Формат видео : MP4
Video
ID : 1
Format : AVC
Format/Info : Advanced Video Codec
Format profile : High@L5.1
Format settings : CABAC / 4 Ref Frames
Format settings, CABAC : Yes
Format settings, RefFrames : 4 frames
Codec ID : avc1
Codec ID/Info : Advanced Video Coding
Duration : 9 min 47 s
Bit rate mode : Variable
Bit rate : 16.0 Mb/s
Width : 3 840 pixels
Height : 2 160 pixels
Display aspect ratio : 16:9
Frame rate mode : Constant
Frame rate : 25.000 FPS
Standard : PAL
Color space : YUV
Chroma subsampling : 4:2:0
Bit depth : 8 bits
Scan type : Progressive
Bits/(Pixel*Frame) : 0.077
Stream size : 1.09 GiB (99%)
Color range : Limited
Color primaries : BT.709
Transfer characteristics : BT.709
Matrix coefficients : BT.709

Audio
ID : 2
Format : AAC
Format/Info : Advanced Audio Codec
Format profile : LC
Codec ID : mp4a-40-2
Duration : 9 min 47 s
Duration_LastFrame : -21 ms
Bit rate mode : Constant
Bit rate : 192 kb/s
Channel(s) : 2 channels
Channel positions : Front: L R
Sampling rate : 44.1 kHz
Frame rate : 43.066 FPS (1024 SPF)
Compression mode : Lossy
Stream size : 13.3 MiB (1%)
Default : Yes
Alternate group : 1


Скриншоты:


Как тут качатьЗаказ порнушки!
Добавлен:  12 фев 2018, 11:55

Скачать торрент Смотреть онлайн
Скачать торрент

Размер: 1.1 ГБ
Скачали: 912
Статус Проверен
 

Последний сидер: 14 дней 2 часа 27 минут 10 секунд назад
Приватный: Нет (DHT включён)
Нет сидов? Пиши сюдаКак скачать отдельный файл из раздачи?


Вернуться к началу
 Профиль  
 
Показать сообщения за:  Поле сортировки  
Начать новую тему Ответить на тему  [ 1 сообщение ] 


Кто сейчас на конференции

Зарегистрированные пользователи: Google [Bot], JoshuaSpous, Yandex [Bot]


Вы не можете начинать темы
Вы не можете отвечать на сообщения
Вы не можете редактировать свои сообщения
Вы не можете удалять свои сообщения
Вы не можете добавлять вложения

Найти:
Перейти:  

Ресурс не предоставляет электронные версии произведений, а занимается лишь коллекционированием и каталогизацией ссылок, присылаемых и публикуемых на форуме нашими читателями. Если вы являетесь правообладателем какого-либо представленного материала и не желаете чтобы ссылка на него находилась в нашем каталоге, свяжитесь с нами и мы незамедлительно удалим её. Файлы для обмена на трекере предоставлены пользователями сайта, и администрация не несёт ответственности за их содержание. Просьба не заливать файлы, защищенные авторскими правами, а также файлы нелегального содержания!