Начать новую тему Ответить на тему  [ 1 сообщение ] 
Статистика раздачи
Размер: 427.1 МБ | Добавлен: 12 фев 2018, 11:48 | Скачали: 1507
Сидеров: 40  [0 байт/сек]    Личеров: 13  [0 байт/сек]
Автор

СообщениеДобавлено: 12 фев 2018, 11:48 

Не в сети
Супераплоадер
Супераплоадер
Аватара пользователя
Раздал: 1011.16 ГБ
Скачал: 272.47 ГБ
Ратио: 3.711


Зарегистрирован: 10 окт 2013, 18:02
Сообщения: 3041
Год производства: 2018
Название ролика: Bonnie A Quick Wank
Жанр: Solo,Masturbation
В ролях: Bonnie A
Продолжительность:9 min 47 s
Подсайт и сайт:Wank it now

Bonnie hasn't been to the dentist for a couple of years... She has a phobia which means she gets really nervous and tries to avoid dentists! To take her mind off of things you whip out your huge COCK! Bonnie can't think of anything else other than the size of your DICK and what she might be able to do with it! One thing leads to another and before you know it... Bonnie is showing you her shaven PUSSY while instructing you to WANK!

Тип видео : HD
Формат видео : MP4
Video
ID : 1
Format : AVC
Format/Info : Advanced Video Codec
Format profile : [email protected]
Format settings : CABAC / 4 Ref Frames
Format settings, CABAC : Yes
Format settings, RefFrames : 4 frames
Codec ID : avc1
Codec ID/Info : Advanced Video Coding
Duration : 9 min 47 s
Bit rate mode : Variable
Bit rate : 6 000 kb/s
Width : 1 920 pixels
Height : 1 080 pixels
Display aspect ratio : 16:9
Frame rate mode : Constant
Frame rate : 25.000 FPS
Standard : PAL
Color space : YUV
Chroma subsampling : 4:2:0
Bit depth : 8 bits
Scan type : Progressive
Bits/(Pixel*Frame) : 0.116
Stream size : 418 MiB (98%)
Color range : Limited
Color primaries : BT.709
Transfer characteristics : BT.709
Matrix coefficients : BT.709

Audio
ID : 2
Format : AAC
Format/Info : Advanced Audio Codec
Format profile : LC
Codec ID : mp4a-40-2
Duration : 9 min 47 s
Duration_LastFrame : -21 ms
Bit rate mode : Constant
Bit rate : 126 kb/s
Channel(s) : 2 channels
Channel positions : Front: L R
Sampling rate : 44.1 kHz
Frame rate : 43.066 FPS (1024 SPF)
Compression mode : Lossy
Stream size : 8.80 MiB (2%)
Default : Yes
Alternate group : 1

Скриншоты:

Как тут качатьЗаказ порнушки!
Добавлен:  12 фев 2018, 11:48

Скачать торрент Магнет ссылка
Скачать торрент

Размер: 427.1 МБ
Скачали: 1507
Статус Проверен
 
Последний сидер: 1 месяц 17 дней 11 часов 53 минуты 36 секунд назад
Приватный: Нет (DHT включён)
Нет сидов? Пиши сюдаКак скачать отдельный файл из раздачи?


Вернуться к началу
 Профиль  
 
Показать сообщения за:  Поле сортировки  
Начать новую тему Ответить на тему  [ 1 сообщение ] 


Кто сейчас на конференции

Зарегистрированные пользователи: Google [Bot], Yandex [Bot]


Вы не можете начинать темы
Вы не можете отвечать на сообщения
Вы не можете редактировать свои сообщения
Вы не можете удалять свои сообщения
Вы не можете добавлять вложения

Найти:
Перейти:  

cron