Начать новую тему Ответить на тему  [ 1 сообщение ] 
Статистика раздачи
Размер: 368.43 МБ | Добавлен: 12 фев 2018, 12:14 | Скачали: 2208
Сидеров: 28  [0 байт/сек]    Личеров: 14  [0 байт/сек]

Автор

СообщениеДобавлено: 12 фев 2018, 12:14 

Не в сети
Супераплоадер
Супераплоадер
Аватара пользователя
Раздал: 863.29 ГБ
Скачал: 248.15 ГБ
Ратио: 3.479


Зарегистрирован: 10 окт 2013, 18:02
Сообщения: 2283


Год производства: 2018
Название ролика: Jess West Pussy Payment
Жанр: Solo,Masturbation
В ролях: Jess West
Продолжительность:8 min 26 s
Подсайт и сайт:Wank it now

Jess West is your mates Daugther... A total fucking hottie! She's turned up at your garage ready to pick her car up looking sexy as ever! She's wearing a crop top which shows off her ample cleavage and some suspenders which leave you wanting more! You know there is no way you could ever accept money from Jess... She's a practically family! However, when Jess offers you a different kind of payment... You begin to open up to her ideas!

Тип видео : HD
Формат видео : MP4
Video
ID : 1
Format : AVC
Format/Info : Advanced Video Codec
Format profile : High@L4.2
Format settings : CABAC / 4 Ref Frames
Format settings, CABAC : Yes
Format settings, RefFrames : 4 frames
Codec ID : avc1
Codec ID/Info : Advanced Video Coding
Duration : 8 min 26 s
Bit rate mode : Variable
Bit rate : 6 000 kb/s
Width : 1 920 pixels
Height : 1 080 pixels
Display aspect ratio : 16:9
Frame rate mode : Constant
Frame rate : 25.000 FPS
Standard : PAL
Color space : YUV
Chroma subsampling : 4:2:0
Bit depth : 8 bits
Scan type : Progressive
Bits/(Pixel*Frame) : 0.116
Stream size : 360 MiB (98%)
Color range : Limited
Color primaries : BT.709
Transfer characteristics : BT.709
Matrix coefficients : BT.709

Audio
ID : 2
Format : AAC
Format/Info : Advanced Audio Codec
Format profile : LC
Codec ID : mp4a-40-2
Duration : 8 min 26 s
Duration_LastFrame : -22 ms
Bit rate mode : Constant
Bit rate : 126 kb/s
Channel(s) : 2 channels
Channel positions : Front: L R
Sampling rate : 44.1 kHz
Frame rate : 43.066 FPS (1024 SPF)
Compression mode : Lossy
Stream size : 7.59 MiB (2%)
Default : Yes
Alternate group : 1


Скриншоты:


Как тут качатьЗаказ порнушки!
Добавлен:  12 фев 2018, 12:14

Скачать торрент Смотреть онлайн
Скачать торрент

Размер: 368.43 МБ
Скачали: 2208
Статус Проверен
 

Последний сидер: 13 часов 28 минут 4 секунды назад
Приватный: Нет (DHT включён)
Нет сидов? Пиши сюдаКак скачать отдельный файл из раздачи?


Вернуться к началу
 Профиль  
 
Показать сообщения за:  Поле сортировки  
Начать новую тему Ответить на тему  [ 1 сообщение ] 


Кто сейчас на конференции

Зарегистрированные пользователи: Google [Bot], Yandex [Bot]


Вы не можете начинать темы
Вы не можете отвечать на сообщения
Вы не можете редактировать свои сообщения
Вы не можете удалять свои сообщения
Вы не можете добавлять вложения

Найти:
Перейти:  

Ресурс не предоставляет электронные версии произведений, а занимается лишь коллекционированием и каталогизацией ссылок, присылаемых и публикуемых на форуме нашими читателями. Если вы являетесь правообладателем какого-либо представленного материала и не желаете чтобы ссылка на него находилась в нашем каталоге, свяжитесь с нами и мы незамедлительно удалим её. Файлы для обмена на трекере предоставлены пользователями сайта, и администрация не несёт ответственности за их содержание. Просьба не заливать файлы, защищенные авторскими правами, а также файлы нелегального содержания!