Начать новую тему Ответить на тему  [ 1 сообщение ] 
Статистика раздачи
Размер: 4.04 ГБ | Добавлен: 12 фев 2018, 19:39 | Скачали: 4925
Сидеров: 165  [0 байт/сек]    Личеров: 102  [0 байт/сек]

Автор

СообщениеДобавлено: 12 фев 2018, 19:39 

Не в сети
Супераплоадер
Супераплоадер
Аватара пользователя
Раздал: 863.29 ГБ
Скачал: 248.15 ГБ
Ратио: 3.479


Зарегистрирован: 10 окт 2013, 18:02
Сообщения: 2277


Год производства: 2018
Название ролика: Livia V And Madelaine Lesbian
Жанр: Solo,Masturbation,Lesbian
В ролях: Livia V And Madelaine
Продолжительность: 56 min 54 s
Подсайт и сайт: Abby Winters

Hitting each other with pillows, Livia and Madelaine playfully wrestle in the bed, until exhausted, Livia falls on top of Madelaine posing her lips on hers as her hands grab her firm bum. Passionately undressing each other, Madelaine takes off Livia's top, and kisses gently her nipples while slowly moving down her body all the way to in between her legs, pulling aside her panties and licking her vulva ardently.

Laying on all fours completely naked, Madelaine smiles as she pushes her bum out while Livia uses her hands to spread her bum cheeks apart, exposing her immaculate shaved vulva and meaty lips before diving her tongue into it. Turning around, Livia is eager to sit on top of Madelaine and turn into a hot 69, with both girls doing their best to pleasure each other.

Тип видео : HD
Формат видео : MP4
Video
ID : 1
Format : AVC
Format/Info : Advanced Video Codec
Format profile : Main@L4.2
Format settings : CABAC / 4 Ref Frames
Format settings, CABAC : Yes
Format settings, RefFrames : 4 frames
Codec ID : avc1
Codec ID/Info : Advanced Video Coding
Duration : 56 min 54 s
Bit rate : 9 996 kb/s
Width : 1 920 pixels
Height : 1 080 pixels
Display aspect ratio : 16:9
Frame rate mode : Variable
Frame rate : 50.000 FPS
Minimum frame rate : 16.667 FPS
Maximum frame rate : 50 000.000 FPS
Standard : PAL
Color space : YUV
Chroma subsampling : 4:2:0
Bit depth : 8 bits
Scan type : Progressive
Bits/(Pixel*Frame) : 0.096
Stream size : 3.98 GiB (98%)
Color range : Limited
Color primaries : BT.709
Transfer characteristics : BT.709
Matrix coefficients : BT.709

Audio
ID : 2
Format : AAC
Format/Info : Advanced Audio Codec
Format profile : LC
Codec ID : mp4a-40-2
Duration : 56 min 54 s
Bit rate mode : Constant
Bit rate : 157 kb/s
Channel(s) : 2 channels
Channel(s)_Original : 1 channel
Channel positions : Front: C
Sampling rate : 48.0 kHz
Frame rate : 46.875 FPS (1024 SPF)
Compression mode : Lossy
Stream size : 64.1 MiB (2%)
Default : Yes
Alternate group : 1

Скриншоты:


Как тут качатьЗаказ порнушки!
Добавлен:  12 фев 2018, 19:39

Скачать торрент Смотреть онлайн
Скачать торрент

Размер: 4.04 ГБ
Скачали: 4925
Статус Проверен
 

Последний сидер: 10 минут 40 секунд назад
Приватный: Нет (DHT включён)
Нет сидов? Пиши сюдаКак скачать отдельный файл из раздачи?


Вернуться к началу
 Профиль  
 
Показать сообщения за:  Поле сортировки  
Начать новую тему Ответить на тему  [ 1 сообщение ] 


Кто сейчас на конференции

Зарегистрированные пользователи: Google [Bot], Yandex [Bot]


Вы не можете начинать темы
Вы не можете отвечать на сообщения
Вы не можете редактировать свои сообщения
Вы не можете удалять свои сообщения
Вы не можете добавлять вложения

Найти:
Перейти:  

Ресурс не предоставляет электронные версии произведений, а занимается лишь коллекционированием и каталогизацией ссылок, присылаемых и публикуемых на форуме нашими читателями. Если вы являетесь правообладателем какого-либо представленного материала и не желаете чтобы ссылка на него находилась в нашем каталоге, свяжитесь с нами и мы незамедлительно удалим её. Файлы для обмена на трекере предоставлены пользователями сайта, и администрация не несёт ответственности за их содержание. Просьба не заливать файлы, защищенные авторскими правами, а также файлы нелегального содержания!